×

¿Problemas para descargar con Mozilla, EDGE? Deshabilita la opción "Abrir vinculos en una pestaña nueva" tal como lo muestra ésta imagen.

Amor A Primer Mensaje (2023) PLACEBO Full HD 1080p Latino

190 vistas

Información de Amor A Primer Mensaje (2023) PLACEBO Full HD 1080p Latino

Datos de la película

  • Calidad: Full 1080p
  • Audio: Español Latino AC3 5.1 BLURAY - Ingles DTS 5.1 BLURAY
  • Subtitulos: Español Latino PGS - Ingles PGS
  • Resolución: 1920x1080p
  • Formato: MKV
  • Codec: H.264
  • Encoder: Melkor
  • Mediainfo: Clic para Mostrar Datos Ver
  • Amor A Primer Mensaje (2023) PLACEBO 1080p Latino.mkv
    Format                      : Matroska
    Format version              : Version 4
    File size                   : 5.48 GiB
    Duration                    : 1 h 44 min
    Overall bit rate            : 7 513 kb/s
    Movie name                  : Love Again (2023) CinemaniaHDD.Net
    Encoded date                : UTC 2023-07-18 18:39:34
    Writing application         : mkvmerge v56.1.0 ('My Friend') 64-bit
    Writing library             : libebml v1.4.2 + libmatroska v1.6.4
    Attachments                 : CINEMANIAHD.png
    Site                        : CinemaniaHDD.Net
    Uploader                    : Melkor

    Video
    ID                          : 1
    Format                      : AVC
    Format/Info                 : Advanced Video Codec
    Format profile              : High@L4.1
    Format settings             : CABAC / 4 Ref Frames
    Format settings, CABAC      : Yes
    Format settings, Reference  : 4 frames
    Codec ID                    : V_MPEG4/ISO/AVC
    Duration                    : 1 h 44 min
    Bit rate                    : 5 325 kb/s
    Width                       : 1 920 pixels
    Height                      : 1 080 pixels
    Display aspect ratio        : 16:9
    Frame rate mode             : Constant
    Frame rate                  : 23.976 (24000/1001) FPS
    Color space                 : YUV
    Chroma subsampling          : 4:2:0
    Bit depth                   : 8 bits
    Scan type                   : Progressive
    Bits/(Pixel*Frame)          : 0.107
    Stream size                 : 3.88 GiB (71%)
    Title                       : Full HD1080p [CinemaniaHDD]
    Writing library             : x264 core 163 r3059 b684ebe0
    Encoding settings           : cabac=1 / ref=4 / deblock=1:0:0 / analyse=0x3:0x133 / me=tesa / subme=11 / psy=1 / psy_rd=1.00:0.00 / mixed_ref=1 / me_range=24 / chroma_me=1 / trellis=2 / 8x8dct=1 / cqm=0 / deadzone=21,11 / fast_pskip=0 / chroma_qp_offset=-2 / threads=24 / lookahead_threads=6 / sliced_threads=0 / nr=0 / decimate=1 / interlaced=0 / bluray_compat=0 / constrained_intra=0 / bframes=16 / b_pyramid=2 / b_adapt=2 / b_bias=0 / direct=3 / weightb=1 / open_gop=0 / weightp=2 / keyint=240 / keyint_min=24 / scenecut=40 / intra_refresh=0 / rc_lookahead=60 / rc=crf / mbtree=1 / crf=19.0 / qcomp=0.60 / qpmin=0 / qpmax=69 / qpstep=4 / vbv_maxrate=62500 / vbv_bufsize=78125 / crf_max=0.0 / nal_hrd=none / filler=0 / ip_ratio=1.40 / aq=1:1.00
    Default                     : Yes
    Forced                      : Yes
    Color range                 : Limited
    Color primaries             : BT.709
    Transfer characteristics    : BT.709
    Matrix coefficients         : BT.709

    Audio #1
    ID                          : 2
    ID in the original source m : 4354 (0x1102)
    Format                      : AC-3
    Format/Info                 : Audio Coding 3
    Commercial name             : Dolby Digital
    Codec ID                    : A_AC3
    Duration                    : 1 h 44 min
    Bit rate mode               : Constant
    Bit rate                    : 640 kb/s
    Channel(s)                  : 6 channels
    Channel layout              : L R C LFE Ls Rs
    Sampling rate               : 48.0 kHz
    Frame rate                  : 31.250 FPS (1536 SPF)
    Compression mode            : Lossy
    Stream size                 : 478 MiB (9%)
    Title                       : Español Latino [CinemaniaHDD]
    Language                    : Spanish
    Service kind                : Complete Main
    Default                     : Yes
    Forced                      : Yes
    Original source medium      : Blu-ray

    Audio #2
    ID                          : 3
    Format                      : DTS
    Format/Info                 : Digital Theater Systems
    Codec ID                    : A_DTS
    Duration                    : 1 h 44 min
    Bit rate mode               : Constant
    Bit rate                    : 1 509 kb/s
    Channel(s)                  : 6 channels
    Channel layout              : C L R Ls Rs LFE
    Sampling rate               : 48.0 kHz
    Frame rate                  : 93.750 FPS (512 SPF)
    Bit depth                   : 24 bits
    Compression mode            : Lossy
    Stream size                 : 1.10 GiB (20%)
    Title                       : Ingles [CinemaniaHDD]
    Language                    : English
    Default                     : No
    Forced                      : No

    Text #1
    ID                          : 4
    Format                      : PGS
    Muxing mode                 : zlib
    Codec ID                    : S_HDMV/PGS
    Codec ID/Info               : Picture based subtitle format used on BDs/HD-DVDs
    Duration                    : 1 h 42 min
    Bit rate                    : 2 685 b/s
    Count of elements           : 158
    Stream size                 : 1.97 MiB (0%)
    Title                       : Forzados-PGS [CinemaniaHDD]
    Language                    : Spanish
    Default                     : No
    Forced                      : No

    Text #2
    ID                          : 5
    ID in the original source m : 4614 (0x1206)
    Format                      : PGS
    Muxing mode                 : zlib
    Codec ID                    : S_HDMV/PGS
    Codec ID/Info               : Picture based subtitle format used on BDs/HD-DVDs
    Duration                    : 1 h 43 min
    Bit rate                    : 31.0 kb/s
    Count of elements           : 2972
    Stream size                 : 22.9 MiB (0%)
    Title                       : Español-PGS [CinemaniaHDD]
    Language                    : Spanish
    Default                     : No
    Forced                      : No
    Original source medium      : Blu-ray

    Text #3
    ID                          : 6
    ID in the original source m : 4609 (0x1201)
    Format                      : PGS
    Muxing mode                 : zlib
    Codec ID                    : S_HDMV/PGS
    Codec ID/Info               : Picture based subtitle format used on BDs/HD-DVDs
    Duration                    : 1 h 38 min
    Bit rate                    : 35.5 kb/s
    Count of elements           : 2750
    Stream size                 : 25.1 MiB (0%)
    Title                       : Ingles [CinemaniaHDD]
    Language                    : English
    Default                     : No
    Forced                      : No
    Original source medium      : Blu-ray

    Text #4
    ID                          : 7
    Format                      : UTF-8
    Codec ID                    : S_TEXT/UTF8
    Codec ID/Info               : UTF-8 Plain Text
    Duration                    : 1 h 42 min
    Bit rate                    : 4 b/s
    Count of elements           : 80
    Stream size                 : 3.31 KiB (0%)
    Title                       : Forzados-SRT [CinemaniaHDD]
    Language                    : Spanish
    Default                     : Yes
    Forced                      : Yes

    Text #5
    ID                          : 8
    Format                      : UTF-8
    Codec ID                    : S_TEXT/UTF8
    Codec ID/Info               : UTF-8 Plain Text
    Duration                    : 1 h 41 min
    Bit rate                    : 70 b/s
    Count of elements           : 1552
    Stream size                 : 52.5 KiB (0%)
    Title                       : Español-SRT [CinemaniaHDD]
    Language                    : Spanish
    Default                     : No
    Forced                      : No

    Menu
    00:00:00.000                : Chapter 01
    00:04:15.255                : Chapter 02
    00:07:51.471                : Chapter 03
    00:14:33.664                : Chapter 04
    00:22:34.603                : Chapter 05
    00:25:58.223                : Chapter 06
    00:31:16.749                : Chapter 07
    00:38:10.413                : Chapter 08
    00:42:25.543                : Chapter 09
    00:46:45.761                : Chapter 10
    00:51:38.637                : Chapter 11
    01:00:53.483                : Chapter 12
    01:05:51.530                : Chapter 13
    01:15:10.797                : Chapter 14
    01:28:21.004                : Chapter 15
    01:32:03.309                : Chapter 16

  • Peso: 5.48 GiB

Sinopsis

Descargar Amor A Primer Mensaje (2023) PLACEBO Full HD 1080p Latino. Mientras intenta superar la pérdida de su prometido, Mira Ray envía una serie de mensajes románticos a su antiguo número de teléfono… sin tener en cuenta que el número había sido reasignado al nuevo teléfono de trabajo de Rob Burns. Rob, periodista, queda sorprendido por la honestidad de los mensajes de texto. Cuando le asignan la tarea de escribir un artículo sobre la megaestrella Celine Dion, él le pide ayuda para averiguar cómo conocer a Mira en persona… y conquistar así su corazón.

Ficha técnica

Video trailer de la película

Enlaces de descarga

Rip de Bluray

Descargar Amor A Primer Mensaje (2023) PLACEBO Full HD 1080p Latino




Aportes de DPeliculasHDmega la pass es:dpeliculashdmega.org Aportes de CinemaniaHD la pass es:cinemaniahdd.com Aportes recientes:cinemaniahdd.net

Películas relacionadas

  • Red de venganza (2023) HD 1080p Latino

    Red de venganza (2023) HD 1080p Latino

    2023
    Red de venganza (2023) HD 1080p Latino

    1h 25m 2023

    Descargar Red de venganza (2023) HD 1080p Latino. Analiza los problemas que surgen entre una madre (Summer...

    Director: Amy Redford

    Género: Drama

    Actores: Summer Phoenix

  • Red de venganza (2023) REMUX 1080p Latino

    Red de venganza (2023) REMUX 1080p Latino

    2023
    Red de venganza (2023) REMUX 1080p Latino

    1h 25m 2023

    Descargar Red de venganza (2023) REMUX 1080p Latino. Analiza los problemas que surgen entre una madre...

    Director: Amy Redford

    Género: Drama

    Actores: Summer Phoenix

  • Recuerdos Mortales (2024) WEB-DL 1080p Latino

    Recuerdos Mortales (2024) WEB-DL 1080p Latino

    2024
    Recuerdos Mortales (2024) WEB-DL 1080p Latino

    1h 52m 2024

    Descargar Recuerdos Mortales (2024) WEB-DL 1080p Latino. Después de someterse a un tratamiento de vanguardia...

    Director: Adam Cooper

    Género: Crimen

    Actores: Tommy Flanagan

descargar Amor A Primer Mensaje (2023) PLACEBO Full HD 1080p Latino Full 1080p 1080p gratis, Amor A Primer Mensaje (2023) PLACEBO Full HD 1080p Latino Full 1080p mega 1 link, Amor A Primer Mensaje (2023) PLACEBO Full HD 1080p Latino Full 1080p pelicula completa, descargar Amor A Primer Mensaje (2023) PLACEBO Full HD 1080p Latino Full 1080p gratis en mega.

Amor A Primer Mensaje (2023) PLACEBO Full HD 1080p Latino pelicula full hd, Amor A Primer Mensaje (2023) PLACEBO Full HD 1080p Latino mega latino, Amor A Primer Mensaje (2023) PLACEBO Full HD 1080p Latino 4k latino, Amor A Primer Mensaje (2023) PLACEBO Full HD 1080p Latino pelicula completa, Amor A Primer Mensaje (2023) PLACEBO Full HD 1080p Latino descargar gratis, descargar Amor A Primer Mensaje (2023) PLACEBO Full HD 1080p Latino pelicula latino, Amor A Primer Mensaje (2023) PLACEBO Full HD 1080p Latino 1 link mega, Amor A Primer Mensaje (2023) PLACEBO Full HD 1080p Latino 1 link google drive, Amor A Primer Mensaje (2023) PLACEBO Full HD 1080p Latino hd 1080p latino.
Comentarios 0