×

¿Problemas para descargar con Mozilla, EDGE? Deshabilita la opción "Abrir vinculos en una pestaña nueva" tal como lo muestra ésta imagen.

Amor a primer mensaje (2023) MA WEB-DL 1080p Latino

183 vistas

Información de Amor a primer mensaje (2023) MA WEB-DL 1080p Latino

Datos de la película

  • Calidad: WEBDL
  • Audio: Español Latino AC3 5.1 WEB-DL - Ingles AC3 5.1 WEB-DL
  • Subtitulos: Español Latino SRT- FORZADOS SRT
  • Resolución: 1920x1080p
  • Formato: MKV
  • Codec: H.264
  • Encoder: Melkor
  • Mediainfo: Clic para Mostrar Datos Ver
  • Amor a primer mensaje (2023) MA WebDL 1080p Latino.mkv
    Format                      : Matroska
    Format version              : Version 4
    File size                   : 6.61 GiB
    Duration                    : 1 h 44 min
    Overall bit rate            : 9 071 kb/s
    Movie name                  : Love Again (2023) CinemaniaHDD.Net
    Encoded date                : UTC 2023-06-13 04:20:36
    Writing application         : mkvmerge v56.1.0 ('My Friend') 64-bit
    Writing library             : libebml v1.4.2 + libmatroska v1.6.4
    Attachments                 : CINEMANIAHD.png
    Site                        : CinemaniaHDD.Net
    Uploader                    : Melkor

    Video
    ID                          : 1
    Format                      : AVC
    Format/Info                 : Advanced Video Codec
    Format profile              : High@L4
    Format settings             : CABAC / 4 Ref Frames
    Format settings, CABAC      : Yes
    Format settings, Reference  : 4 frames
    Codec ID                    : V_MPEG4/ISO/AVC
    Duration                    : 1 h 44 min
    Bit rate                    : 8 000 kb/s
    Width                       : 1 920 pixels
    Height                      : 1 080 pixels
    Display aspect ratio        : 16:9
    Frame rate mode             : Constant
    Frame rate                  : 23.976 (24000/1001) FPS
    Color space                 : YUV
    Chroma subsampling          : 4:2:0
    Bit depth                   : 8 bits
    Scan type                   : Progressive
    Bits/(Pixel*Frame)          : 0.161
    Stream size                 : 5.77 GiB (87%)
    Title                       : Web HD1080p [CinemaniaHDD]
    Writing library             : x264 core 164 r3094 bfc87b7
    Encoding settings           : cabac=1 / ref=4 / deblock=1:-1:-1 / analyse=0x3:0x133 / me=umh / subme=9 / psy=1 / psy_rd=1.00:0.15 / mixed_ref=1 / me_range=16 / chroma_me=1 / trellis=2 / 8x8dct=1 / cqm=0 / deadzone=21,11 / fast_pskip=1 / chroma_qp_offset=-3 / threads=12 / lookahead_threads=1 / sliced_threads=0 / nr=0 / decimate=1 / interlaced=0 / bluray_compat=0 / stitchable=1 / constrained_intra=0 / bframes=3 / b_pyramid=2 / b_adapt=2 / b_bias=0 / direct=3 / weightb=1 / open_gop=0 / weightp=2 / keyint=48 / keyint_min=4 / scenecut=0 / intra_refresh=0 / rc_lookahead=48 / rc=abr / mbtree=1 / bitrate=8000 / ratetol=1.0 / qcomp=0.60 / qpmin=0 / qpmax=69 / qpstep=4 / vbv_maxrate=8800 / vbv_bufsize=16000 / nal_hrd=none / filler=0 / ip_ratio=1.40 / aq=1:1.00
    Language                    : English
    Default                     : Yes
    Forced                      : Yes
    Color range                 : Limited
    Color primaries             : BT.709
    Transfer characteristics    : BT.709
    Matrix coefficients         : BT.709

    Audio #1
    ID                          : 2
    Format                      : AC-3
    Format/Info                 : Audio Coding 3
    Commercial name             : Dolby Digital
    Codec ID                    : A_AC3
    Duration                    : 1 h 44 min
    Bit rate mode               : Constant
    Bit rate                    : 384 kb/s
    Channel(s)                  : 6 channels
    Channel layout              : L R C LFE Ls Rs
    Sampling rate               : 48.0 kHz
    Frame rate                  : 31.250 FPS (1536 SPF)
    Compression mode            : Lossy
    Delay relative to video     : 21 ms
    Stream size                 : 287 MiB (4%)
    Title                       : Español Latino [CinemaniaHDD]
    Language                    : Spanish
    Service kind                : Complete Main
    Default                     : Yes
    Forced                      : Yes

    Audio #2
    ID                          : 3
    Format                      : E-AC-3 JOC
    Format/Info                 : Enhanced AC-3 with Joint Object Coding
    Commercial name             : Dolby Digital Plus with Dolby Atmos
    Codec ID                    : A_EAC3
    Duration                    : 1 h 44 min
    Bit rate mode               : Constant
    Bit rate                    : 768 kb/s
    Channel(s)                  : 6 channels
    Channel layout              : L R C LFE Ls Rs
    Sampling rate               : 48.0 kHz
    Frame rate                  : 31.250 FPS (1536 SPF)
    Compression mode            : Lossy
    Stream size                 : 573 MiB (8%)
    Title                       : Ingles [CinemaniaHDD]
    Language                    : English
    Service kind                : Complete Main
    Default                     : No
    Forced                      : No
    Complexity index            : 16
    Number of dynamic objects   : 15
    Bed channel count           : 1 channel
    Bed channel configuration   : LFE

    Text #1
    ID                          : 4
    Format                      : UTF-8
    Codec ID                    : S_TEXT/UTF8
    Codec ID/Info               : UTF-8 Plain Text
    Duration                    : 1 h 42 min
    Bit rate                    : 4 b/s
    Count of elements           : 80
    Stream size                 : 3.31 KiB (0%)
    Title                       : Forzados-SRT [CinemaniaHDD]
    Language                    : Spanish
    Default                     : Yes
    Forced                      : Yes

    Text #2
    ID                          : 5
    Format                      : UTF-8
    Codec ID                    : S_TEXT/UTF8
    Codec ID/Info               : UTF-8 Plain Text
    Duration                    : 1 h 41 min
    Bit rate                    : 70 b/s
    Count of elements           : 1552
    Stream size                 : 52.5 KiB (0%)
    Title                       : Español-SRT [CinemaniaHDD]
    Language                    : Spanish
    Default                     : No
    Forced                      : No

    Text #3
    ID                          : 6
    Format                      : UTF-8
    Codec ID                    : S_TEXT/UTF8
    Codec ID/Info               : UTF-8 Plain Text
    Duration                    : 1 h 41 min
    Bit rate                    : 73 b/s
    Count of elements           : 1756
    Stream size                 : 54.5 KiB (0%)
    Title                       : Ingles-SRT [CinemaniaHDD]
    Language                    : English
    Default                     : No
    Forced                      : No

    Menu
    00:00:00.000                : :Chapter 01
    00:06:14.499                : :Chapter 02
    00:14:32.664                : :Chapter 03
    00:20:17.092                : :Chapter 04
    00:27:15.468                : :Chapter 05
    00:32:32.744                : :Chapter 06
    00:38:09.414                : :Chapter 07
    00:46:44.763                : :Chapter 08
    00:52:44.122                : :Chapter 09
    01:01:41.868                : :Chapter 10
    01:07:08.653                : :Chapter 11
    01:13:06.094                : :Chapter 12
    01:19:14.212                : :Chapter 13
    01:27:04.057                : :Chapter 14
    01:32:02.313                : :Chapter 15
    01:37:46.825                : :Chapter 16

  • Peso: 6.61 GiB

Sinopsis

Descargar Amor a primer mensaje (2023) MA WEB-DL 1080p Latino. Mientras intenta superar la pérdida de su prometido, Mira Ray envía una serie de mensajes románticos a su antiguo número de teléfono… sin tener en cuenta que el número había sido reasignado al nuevo teléfono de trabajo de Rob Burns. Rob, periodista, queda sorprendido por la honestidad de los mensajes de texto. Cuando le asignan la tarea de escribir un artículo sobre la megaestrella Celine Dion, él le pide ayuda para averiguar cómo conocer a Mira en persona… y conquistar así su corazón.

Ficha técnica

Video trailer de la película

Enlaces de descarga

Rip de Bluray

Descargar Amor a primer mensaje (2023) MA WEB-DL 1080p Latino




Aportes de DPeliculasHDmega la pass es:dpeliculashdmega.org Aportes de CinemaniaHD la pass es:cinemaniahdd.com Aportes recientes:cinemaniahdd.net
Guardado en : Comedia , Drama , Romance

Películas relacionadas

  • Fear (2023) AMZN WEB-DL 1080p Latino

    Fear (2023) AMZN WEB-DL 1080p Latino

    2023
    Fear (2023) AMZN WEB-DL 1080p Latino

    1h 38m 2023

    Una escapada muy necesaria y un fin de semana de celebración se convierte en una pesadilla debido a...

    Director: Deon Taylor

    Género: Drama

    Actores: Whylip Lee

  • Chucky (2023) Temporada 3 WEB-DL 1080p Latino

    Chucky (2023) Temporada 3 WEB-DL 1080p Latino

    2021
    Chucky (2023) Temporada 3 WEB-DL 1080p Latino

    0h 42m 2021

    El infame Chucky se abre paso a cuchilladas hacia la televisión en una nueva y mortífera serie escrita...

    Director: Nick Antosca

    Género: Crimen

    Actores: Zackary Arthur

  • Good Burger 2 (2023) HD 1080p Latino

    Good Burger 2 (2023) HD 1080p Latino

    2023
    Good Burger 2 (2023) HD 1080p Latino

    1h 31m 2023

    Descargar Good Burger 2 (2023) HD 1080p Latino. Después de que su último invento falla, Ed le da la...

    Director: Ross Novie

    Género: Comedia

    Actores: Zoe Saldana

descargar Amor a primer mensaje (2023) MA WEB-DL 1080p Latino WEBDL 1080p gratis, Amor a primer mensaje (2023) MA WEB-DL 1080p Latino WEBDL mega 1 link, Amor a primer mensaje (2023) MA WEB-DL 1080p Latino WEBDL pelicula completa, descargar Amor a primer mensaje (2023) MA WEB-DL 1080p Latino WEBDL gratis en mega.

Amor a primer mensaje (2023) MA WEB-DL 1080p Latino pelicula full hd, Amor a primer mensaje (2023) MA WEB-DL 1080p Latino mega latino, Amor a primer mensaje (2023) MA WEB-DL 1080p Latino 4k latino, Amor a primer mensaje (2023) MA WEB-DL 1080p Latino pelicula completa, Amor a primer mensaje (2023) MA WEB-DL 1080p Latino descargar gratis, descargar Amor a primer mensaje (2023) MA WEB-DL 1080p Latino pelicula latino, Amor a primer mensaje (2023) MA WEB-DL 1080p Latino 1 link mega, Amor a primer mensaje (2023) MA WEB-DL 1080p Latino 1 link google drive, Amor a primer mensaje (2023) MA WEB-DL 1080p Latino hd 1080p latino.
Comentarios 0