Amigos de la universidad (2019) Temporada 2 NF 1080p Español Latino

302 vistas
1 estrella2 estrellas3 estrellas4 estrellas5 estrellas (Ninguna valoración todavía)
Cargando…

Información de Amigos de la universidad (2019) Temporada 2 NF 1080p Español Latino

Datos de la película

  • Calidad: WEBDL
  • Audio: Español Latino AC3 5.1 Netflix - Ingles AC3 5.1 Netflix
  • Subtitulos: Español Latino SRT
  • Resolución: 1920x1080
  • Formato: MKV
  • Codec: H.264
  • Encoder: cinemaniahd
  • Mediainfo: Clic para Mostrar Datos Ver
  • Amigos de la universidad S02E01 (2019) NF 1080p Español Latino.mkv
    Format                      : Matroska
    Format version              : Version 4
    File size                   : 923 MiB
    Duration                    : 29 min 34 s
    Overall bit rate mode       : Variable
    Overall bit rate            : 4 365 kb/s
    Encoded date                : UTC 2019-01-11 15:14:25
    Writing application         : mkvmerge v29.0.0 ('Like It Or Not') 64-bit
    Writing library             : libebml v1.3.6 + libmatroska v1.4.9

    Video
    ID                          : 1
    Format                      : AVC
    Format/Info                 : Advanced Video Codec
    Format profile              : [email protected]
    Format settings             : CABAC / 3 Ref Frames
    Format settings, CABAC      : Yes
    Format settings, ReFrames   : 3 frames
    Codec ID                    : V_MPEG4/ISO/AVC
    Duration                    : 29 min 34 s
    Bit rate mode               : Variable
    Bit rate                    : 3 650 kb/s
    Maximum bit rate            : 5 475 kb/s
    Width                       : 1 920 pixels
    Height                      : 1 080 pixels
    Display aspect ratio        : 16:9
    Frame rate mode             : Constant
    Frame rate                  : 23.976 (24000/1001) FPS
    Color space                 : YUV
    Chroma subsampling          : 4:2:0
    Bit depth                   : 8 bits
    Scan type                   : Progressive
    Bits/(Pixel*Frame)          : 0.073
    Stream size                 : 760 MiB (82%)
    Writing library             : x264 core 148 r2715 7e75228
    Encoding settings           : cabac=1 / ref=3 / deblock=1:0:0 / analyse=0x1:0x111 / me=umh / subme=10 / psy=1 / psy_rd=1.00:0.00 / mixed_ref=1 / me_range=24 / chroma_me=1 / trellis=2 / 8x8dct=0 / cqm=0 / deadzone=21,11 / fast_pskip=1 / chroma_qp_offset=-2 / threads=8 / lookahead_threads=1 / sliced_threads=0 / nr=0 / decimate=1 / interlaced=0 / bluray_compat=0 / stitchable=1 / constrained_intra=0 / bframes=2 / b_pyramid=0 / b_adapt=2 / b_bias=0 / direct=3 / weightb=1 / open_gop=0 / weightp=2 / keyint=48 / keyint_min=25 / scenecut=0 / intra_refresh=0 / rc_lookahead=48 / rc=2pass / mbtree=1 / bitrate=3650 / ratetol=1.0 / qcomp=0.50 / qpmin=6 / qpmax=51 / qpstep=4 / cplxblur=20.0 / qblur=0.5 / vbv_maxrate=5475 / vbv_bufsize=7300 / nal_hrd=vbr / filler=0 / ip_ratio=1.40 / aq=1:1.00
    Default                     : Yes
    Forced                      : No

    Audio #1
    ID                          : 2
    Format                      : AC-3
    Format/Info                 : Audio Coding 3
    Commercial name             : Dolby Digital
    Codec ID                    : A_AC3
    Duration                    : 29 min 34 s
    Bit rate mode               : Constant
    Bit rate                    : 384 kb/s
    Channel(s)                  : 6 channels
    Channel layout              : L R C LFE Ls Rs
    Sampling rate               : 48.0 kHz
    Frame rate                  : 31.250 FPS (1536 SPF)
    Bit depth                   : 16 bits
    Compression mode            : Lossy
    Stream size                 : 81.2 MiB (9%)
    Language                    : Spanish
    Service kind                : Complete Main
    Default                     : Yes
    Forced                      : No

    Audio #2
    ID                          : 3
    Format                      : AC-3
    Format/Info                 : Audio Coding 3
    Commercial name             : Dolby Digital
    Codec ID                    : A_AC3
    Duration                    : 29 min 34 s
    Bit rate mode               : Constant
    Bit rate                    : 384 kb/s
    Channel(s)                  : 6 channels
    Channel layout              : L R C LFE Ls Rs
    Sampling rate               : 48.0 kHz
    Frame rate                  : 31.250 FPS (1536 SPF)
    Bit depth                   : 16 bits
    Compression mode            : Lossy
    Stream size                 : 81.2 MiB (9%)
    Title                       : Ingles / www.cinemaniahdd.net
    Service kind                : Complete Main
    Default                     : No
    Forced                      : No

    Text #1
    ID                          : 4
    Format                      : UTF-8
    Codec ID                    : S_TEXT/UTF8
    Codec ID/Info               : UTF-8 Plain Text
    Duration                    : 29 min 3 s
    Bit rate                    : 72 b/s
    Count of elements           : 512
    Stream size                 : 15.5 KiB (0%)
    Title                       : Spanish
    Language                    : Spanish
    Default                     : No
    Forced                      : No

    Text #2
    ID                          : 5
    Format                      : UTF-8
    Codec ID                    : S_TEXT/UTF8
    Codec ID/Info               : UTF-8 Plain Text
    Duration                    : 29 min 0 s
    Bit rate                    : 96 b/s
    Count of elements           : 635
    Stream size                 : 20.6 KiB (0%)
    Title                       : English
    Language                    : English
    Default                     : No
    Forced                      : No

  • Peso: 1 GB por Capitulo

Sinopsis

La temporada 2 de ocho episodios sigue a seis exalumnos de Harvard de 40 años que viven en la ciudad de Nueva York y las relaciones complicadas que tienen entre sí. Ha pasado un año desde que el asunto de Ethan & Sam fue expuesto a los otros 4 amigos, entre ellos Lisa, la esposa de Ethan, y el grupo de amigos aún está fracturado. Nadie ha escuchado de Lisa, Ethan ha estado viviendo un año arrepentido de escribir una novela de YA, y Sam ha estado tratando de reparar su matrimonio con su esposo Jon. Pero cuando se acerca la boda de Max, los amigos no podrán evitarse mucho más tiempo. Entre la fiesta de compromiso, la despedida de soltero y la boda, los seis tendrán que superar la destrucción de su pasado y descubrir cómo volver a funcionar como un grupo de amigos. ¿Podrán avanzar o volverán nuevamente a sus viejos patrones destructivos?

Las estrellas de Friends From College Keegan-Michael Key (Ethan), Cobie Smulders (Lisa), Annie Parisse (Sam), Nat Faxon (Nick), Fred Savage (Max) y Jae Suh Park (Marianne). Billy Eichner (Felix) y Sarah Chalke (Merrill) serán las estrellas invitadas.

 

 

Ficha técnica

Video trailer de la película

Enlaces de descarga

Rip de Bluray

Descargar Amigos de la universidad (2019) Temporada 2 NF 1080p Español Latino




Aportes de DPeliculasHDmega la pass es:dpeliculashdmega.org Aportes de CinemaniaHD la pass es:cinemaniahdd.com
Guardado en : Comedia , Series

Películas relacionadas

Comentarios 0