American Wrestler: The Wizard (2016) WEBDL 1080p Latino

1.157 vistas
1 estrella2 estrellas3 estrellas4 estrellas5 estrellas (Ninguna valoración todavía)
Cargando…

Información de American Wrestler: The Wizard (2016) WEBDL 1080p Latino

Datos de la película

  • Calidad: WEBDL
  • Audio: Español Latino AC3 2.0 Capturado - Ingles AC3 5.1 iTunes
  • Subtitulos: Español Latino SRT - Ingles SRT
  • Resolución: 1912x792p
  • Formato: MKV
  • Codec: H.264
  • Encoder: Dpelis
  • Mediainfo: Clic para Mostrar Datos Ver
  • American Wrestler The Wizard (2016) WEBDL 1080p Latino.mkv
    Format                      : Matroska
    Format version              : Version 4 / Version 2
    File size                   : 4.16 GiB
    Duration                    : 1 h 56 min
    Overall bit rate            : 5 094 kb/s
    Movie name                  : DPeliculasHDMega.ORG
    Encoded date                : UTC 2017-10-01 20:31:43
    Writing application         : mkvmerge v10.0.0 ('To Drown In You') 64bit
    Writing library             : libebml v1.3.4 + libmatroska v1.4.5
    Cover                       : Yes
    Attachments                 : cover.jpg / cover_land.jpg / small_cover.jpg / small_cover_land.jpg

    Video
    ID                          : 1
    Format                      : AVC
    Format/Info                 : Advanced Video Codec
    Format profile              : [email protected]
    Format settings, CABAC      : Yes
    Format settings, RefFrames  : 5 frames
    Codec ID                    : V_MPEG4/ISO/AVC
    Duration                    : 1 h 56 min
    Bit rate                    : 4 516 kb/s
    Width                       : 1 912 pixels
    Height                      : 792 pixels
    Display aspect ratio        : 2.40:1
    Frame rate mode             : Constant
    Frame rate                  : 23.976 (23976/1000) FPS
    Color space                 : YUV
    Chroma subsampling          : 4:2:0
    Bit depth                   : 8 bits
    Scan type                   : Progressive
    Bits/(Pixel*Frame)          : 0.124
    Stream size                 : 3.68 GiB (89%)
    Language                    : English
    Default                     : Yes
    Forced                      : No
    Color range                 : Limited
    Color primaries             : BT.709
    Transfer characteristics    : BT.709
    Matrix coefficients         : BT.709

    Audio #1
    ID                          : 2
    Format                      : AC-3
    Format/Info                 : Audio Coding 3
    Format settings, Endianness : Big
    Codec ID                    : A_AC3
    Duration                    : 1 h 56 min
    Bit rate mode               : Constant
    Bit rate                    : 192 kb/s
    Channel(s)                  : 2 channels
    Channel positions           : Front: L R
    Sampling rate               : 48.0 kHz
    Frame rate                  : 31.250 FPS (1536 SPF)
    Bit depth                   : 16 bits
    Compression mode            : Lossy
    Delay relative to video     : -5 ms
    Stream size                 : 160 MiB (4%)
    Language                    : Spanish
    Service kind                : Complete Main
    Default                     : Yes
    Forced                      : No

    Audio #2
    ID                          : 3
    Format                      : AC-3
    Format/Info                 : Audio Coding 3
    Format settings, Endianness : Big
    Codec ID                    : A_AC3
    Duration                    : 1 h 56 min
    Bit rate mode               : Constant
    Bit rate                    : 384 kb/s
    Channel(s)                  : 6 channels
    Channel positions           : Front: L C R, Side: L R, LFE
    Sampling rate               : 48.0 kHz
    Frame rate                  : 31.250 FPS (1536 SPF)
    Bit depth                   : 16 bits
    Compression mode            : Lossy
    Delay relative to video     : -42 ms
    Stream size                 : 321 MiB (8%)
    Language                    : English
    Service kind                : Complete Main
    Default                     : No
    Forced                      : No

    Text #1
    ID                          : 4
    Format                      : UTF-8
    Codec ID                    : S_TEXT/UTF8
    Codec ID/Info               : UTF-8 Plain Text
    Duration                    : 1 h 50 min
    Bit rate                    : 45 b/s
    Count of elements           : 1288
    Stream size                 : 37.2 KiB (0%)
    Language                    : English
    Default                     : Yes
    Forced                      : No

    Text #2
    ID                          : 5
    Format                      : UTF-8
    Codec ID                    : S_TEXT/UTF8
    Codec ID/Info               : UTF-8 Plain Text
    Duration                    : 1 h 52 min
    Bit rate                    : 46 b/s
    Count of elements           : 1344
    Stream size                 : 38.2 KiB (0%)
    Language                    : Spanish
    Default                     : No
    Forced                      : No

    Menu
    00:00:00.000                : en:1
    00:13:04.000                : en:2
    00:26:36.000                : en:3
    00:47:43.000                : en:4
    00:58:53.000                : en:5
    01:15:29.000                : en:6
    01:31:01.000                : en:7
    01:51:00.000                : en:8

  • Peso: 4.16 GB

Sinopsis

En 1980, un adolescente escapa de los disturbios en Irán sólo para hacer frente a más hostilidad en América, debido a la crisis de rehenes. Decidido a encajar, se une al equipo de lucha libre de la escuela.

Ficha técnica

  • Titulo original: American Wrestler: The Wizard
  • Fecha de lanzamiento: 23-04-2016 (United States of America)
  • Director: Alex Ranarivelo
  • Género: Drama
  • Puntuación: 0.0 0 votos
  • Duración:
    1h 56m

Video trailer de la película

Enlaces de descarga

Rip de Bluray

Descargar American Wrestler: The Wizard (2016) WEBDL 1080p Latino




Aportes de DPeliculasHDmega la pass es:dpeliculashdmega.org Aportes de CinemaniaHD la pass es:cinemaniahdd.com
Guardado en : Drama

Películas relacionadas

  • Miss Bala (2019) 1080p Latino

    2019
    Miss Bala (2019) 1080p Latino

    0.0 1h 44m 2019

    La ganadora de un concurso de belleza se ve obligada a trabajar para un jefe del crimen después de ser...

    Director: Catherine Hardwicke

    Género: Acción

    Actores: Roberto Sosa

  • Hanna (2019) Temporada 1 AMZN WEB-DL 1080p Latino

    2019
    Hanna (2019) Temporada 1 AMZN WEB-DL 1080p Latino

    0.0 0h 50m 2019

    Este thriller y el drama de la mayoría de edad sigue el viaje de una joven extraordinaria mientras evade...

    Director: David Farr

    Género: Action & Adventure

    Actores: Rhianne Barreto

  • Super Campones (2018) Temporada 1 NF 1080p Latino

    2018
    Super Campones (2018) Temporada 1 NF 1080p Latino

    0.0 0h 22m 2018

    La historia apasionada de un estudiante de escuela primaria cuyos pensamientos y sueños giran casi enteramente...

    Director: Toshiyuki Kato

    Género: Animación

    Actores: Yuuko Sanpei

  • Native Son (2019) AMZN WEB-DL 1080p Latino

    2019
    Native Son (2019) AMZN WEB-DL 1080p Latino

    4.0 1h 50m 2019

    Bigger “Big” Thomas (Ashton Sanders) es un joven afroamericano que vive con su madre y hermanos en...

    Director: Rashid Johnson

    Género: Drama

    Actores: Stephen Henderson

Comentarios 0