×

¿Problemas para descargar con Mozilla, EDGE? Deshabilita la opción "Abrir vinculos en una pestaña nueva" tal como lo muestra ésta imagen.

American Sicario (2021) REMUX 1080p Latino

120 vistas

Información de American Sicario (2021) REMUX 1080p Latino

Datos de la película

  • Calidad: Full 1080p
  • Audio: Español Latino AC3 2.0 WEB-DL - Ingles DTS 5.1 BLURAY
  • Subtitulos: Español Latino PGS - Ingles PGS
  • Resolución: 1920x1080p
  • Formato: MKV
  • Codec: H.264
  • Encoder: Melkor
  • Mediainfo: Clic para Mostrar Datos Ver
  • American Sicario (2021) REMUX 1080p Latino.mkv
    Format                      : Matroska
    Format version              : Version 4
    File size                   : 20.9 GiB
    Duration                    : 1 h 41 min
    Overall bit rate mode       : Variable
    Overall bit rate            : 29.6 Mb/s
    Movie name                  : American Sicario (2021) CinemaniaHDD.Net
    Encoded date                : UTC 2022-06-17 08:00:23
    Writing application         : mkvmerge v56.1.0 ('My Friend') 64-bit
    Writing library             : libebml v1.4.2 + libmatroska v1.6.4
    Attachments                 : CINEMANIAHD.png

    Video
    ID                          : 1
    Format                      : AVC
    Format/Info                 : Advanced Video Codec
    Format profile              : High@L4.1
    Format settings             : CABAC / 4 Ref Frames
    Format settings, CABAC      : Yes
    Format settings, Reference  : 4 frames
    Codec ID                    : V_MPEG4/ISO/AVC
    Duration                    : 1 h 41 min
    Bit rate mode               : Variable
    Bit rate                    : 27.0 Mb/s
    Maximum bit rate            : 35.0 Mb/s
    Width                       : 1 920 pixels
    Height                      : 1 080 pixels
    Display aspect ratio        : 16:9
    Frame rate mode             : Constant
    Frame rate                  : 23.976 (24000/1001) FPS
    Standard                    : NTSC
    Color space                 : YUV
    Chroma subsampling          : 4:2:0
    Bit depth                   : 8 bits
    Scan type                   : Progressive
    Bits/(Pixel*Frame)          : 0.543
    Stream size                 : 19.1 GiB (91%)
    Title                       : REMUX HD1080p [CinemaniaHDD]
    Language                    : English
    Default                     : Yes
    Forced                      : Yes
    Color range                 : Limited
    Color primaries             : BT.709
    Transfer characteristics    : BT.709
    Matrix coefficients         : BT.709

    Audio #1
    ID                          : 2
    Format                      : AC-3
    Format/Info                 : Audio Coding 3
    Commercial name             : Dolby Digital
    Codec ID                    : A_AC3
    Duration                    : 1 h 41 min
    Bit rate mode               : Constant
    Bit rate                    : 256 kb/s
    Channel(s)                  : 2 channels
    Channel layout              : L R
    Sampling rate               : 48.0 kHz
    Frame rate                  : 31.250 FPS (1536 SPF)
    Compression mode            : Lossy
    Stream size                 : 185 MiB (1%)
    Title                       : Español Latino [CinemaniaHDD]
    Language                    : Spanish
    Service kind                : Complete Main
    Default                     : Yes
    Forced                      : Yes

    Audio #2
    ID                          : 3
    Format                      : DTS XLL
    Format/Info                 : Digital Theater Systems
    Commercial name             : DTS-HD Master Audio
    Codec ID                    : A_DTS
    Duration                    : 1 h 41 min
    Bit rate mode               : Variable
    Bit rate                    : 2 321 kb/s
    Channel(s)                  : 6 channels
    Channel layout              : C L R Ls Rs LFE
    Sampling rate               : 48.0 kHz
    Frame rate                  : 93.750 FPS (512 SPF)
    Bit depth                   : 24 bits
    Compression mode            : Lossless
    Stream size                 : 1.64 GiB (8%)
    Title                       : Ingles [CinemaniaHDD]
    Language                    : English
    Default                     : No
    Forced                      : No

    Text #1
    ID                          : 4
    Format                      : PGS
    Muxing mode                 : zlib
    Codec ID                    : S_HDMV/PGS
    Codec ID/Info               : Picture based subtitle format used on BDs/HD-DVDs
    Duration                    : 1 h 33 min
    Bit rate                    : 31.4 kb/s
    Count of elements           : 2162
    Stream size                 : 20.9 MiB (0%)
    Title                       : Español-PGS [CinemaniaHDD]
    Language                    : Spanish
    Default                     : No
    Forced                      : No

    Text #2
    ID                          : 5
    Format                      : PGS
    Muxing mode                 : zlib
    Codec ID                    : S_HDMV/PGS
    Codec ID/Info               : Picture based subtitle format used on BDs/HD-DVDs
    Duration                    : 1 h 35 min
    Bit rate                    : 36.1 kb/s
    Count of elements           : 2848
    Stream size                 : 24.6 MiB (0%)
    Title                       : Ingles-PGS [CinemaniaHDD]
    Language                    : English
    Default                     : No
    Forced                      : No

    Text #3
    ID                          : 6
    Format                      : UTF-8
    Codec ID                    : S_TEXT/UTF8
    Codec ID/Info               : UTF-8 Plain Text
    Duration                    : 1 h 20 min
    Bit rate                    : 0 b/s
    Count of elements           : 10
    Stream size                 : 269 Bytes (0%)
    Title                       : Forzados-SRT [CinemaniaHDD]
    Language                    : Spanish
    Default                     : Yes
    Forced                      : Yes

    Text #4
    ID                          : 7
    Format                      : UTF-8
    Codec ID                    : S_TEXT/UTF8
    Codec ID/Info               : UTF-8 Plain Text
    Duration                    : 1 h 33 min
    Bit rate                    : 45 b/s
    Count of elements           : 1095
    Stream size                 : 30.9 KiB (0%)
    Title                       : Español-SRT [CinemaniaHDD]
    Language                    : Spanish
    Default                     : No
    Forced                      : No

    Menu
    00:00:00.000                : Chapter 01
    00:09:18.016                : Chapter 02
    00:17:13.366                : Chapter 03
    00:22:30.349                : Chapter 04
    00:28:55.901                : Chapter 05
    00:37:49.476                : Chapter 06
    00:44:01.472                : Chapter 07
    00:53:02.262                : Chapter 08
    01:03:18.378                : Chapter 09
    01:13:14.307                : Chapter 10

  • Peso: 20.9 GiB

Sinopsis

Descargar American Sicario (2021) REMUX 1080p Latino. La historia del ascenso y caída del primer señor de las drogas norteamericano en México, esta historia de poder, dinero, codicia y traición entre miembros rivales de los cárteles de la droga encuentra al gángster estadounidense Erik Vasquez planeando convertirse en el mejor perro del hampa mexicano. , solo para encontrarse haciendo enemigos tanto de los cárteles poderosos como de sus propios aliados.

Ficha técnica

  • Titulo original: American Sicario
  • Fecha de lanzamiento: 10-12-2021 (United States of America)
  • Director: RJ Collins
  • Género: Acción, Crimen, Remux

Video trailer de la película

Enlaces de descarga

Rip de Bluray

Descargar American Sicario (2021) REMUX 1080p Latino




Aportes de DPeliculasHDmega la pass es:dpeliculashdmega.org Aportes de CinemaniaHD la pass es:cinemaniahdd.com
Guardado en : Acción , Crimen , Remux

Películas relacionadas

  • El Cuartel Secreto (2022) WEB-DL 4K UHD HDR Latino

    El Cuartel Secreto (2022) WEB-DL 4K UHD HDR Latino

    2022
    El Cuartel Secreto (2022) WEB-DL 4K UHD HDR Latino

    1h 44m 2022

    Descargar El Cuartel Secreto (2022) WEB-DL 4K UHD HDR Latino. Mientras pasan el rato después de la escuela,...

    Director: Henry Joost

    Género: 4K HDR

    Actores: Zeb Slone

  • El Cuartel Secreto (2022) WEB-DL 1080p Latino

    El Cuartel Secreto (2022) WEB-DL 1080p Latino

    2022
    El Cuartel Secreto (2022) WEB-DL 1080p Latino

    1h 44m 2022

    Descargar El Cuartel Secreto (2022) WEB-DL 1080p Latino. Mientras pasan el rato después de la escuela,...

    Director: Henry Joost

    Género: Acción

    Actores: Zeb Slone

  • Men in Black (1997) REMUX 4K HDR Latino – CMHDD

    Men in Black (1997) REMUX 4K HDR Latino – CMHDD

    1997
    Men in Black (1997) REMUX 4K HDR Latino – CMHDD

    1h 34m 1997

    Durante muchos años los extraterrestres han vivido en la Tierra, mezclados con los humanos, sin que...

    Director: Tyrone S. Walker

    Género: Acción

    Actores: Willie C. Carpenter

  • Borrego: Sal Del Camino (2022) HD 1080p Latino

    Borrego: Sal Del Camino (2022) HD 1080p Latino

    2022
    Borrego: Sal Del Camino (2022) HD 1080p Latino

    1h 42m 2022

    Descargar Borrego: Sal Del Camino (2022) HD 1080p Latino. Una joven botánica se traslada a un pequeño...

    Director: Jesse Harris

    Género: Crimen

    Actores: Olivia Trujillo

descargar American Sicario (2021) REMUX 1080p Latino Full 1080p 1080p gratis, American Sicario (2021) REMUX 1080p Latino Full 1080p mega 1 link, American Sicario (2021) REMUX 1080p Latino Full 1080p pelicula completa, descargar American Sicario (2021) REMUX 1080p Latino Full 1080p gratis en mega.

American Sicario (2021) REMUX 1080p Latino pelicula full hd, American Sicario (2021) REMUX 1080p Latino mega latino, American Sicario (2021) REMUX 1080p Latino 4k latino, American Sicario (2021) REMUX 1080p Latino pelicula completa, American Sicario (2021) REMUX 1080p Latino descargar gratis, descargar American Sicario (2021) REMUX 1080p Latino pelicula latino, American Sicario (2021) REMUX 1080p Latino 1 link mega, American Sicario (2021) REMUX 1080p Latino 1 link google drive, American Sicario (2021) REMUX 1080p Latino hd 1080p latino.
Comentarios 0