×

¿Problemas para descargar con Mozilla, EDGE? Deshabilita la opción "Abrir vinculos en una pestaña nueva" tal como lo muestra ésta imagen.

American Rust (2024) Segunda Temporada AMZN WEB-DL 1080p Latino

170 vistas

Información de American Rust (2024) Segunda Temporada AMZN WEB-DL 1080p Latino

Datos de la película

  • Calidad: 1080p
  • Audio: Español Latino AC3 5.1 WEB-DL - Ingles AC3 5.1 WEB-DL
  • Subtitulos: Español Latino SRT- FORZADOS SRT
  • Resolución: 1920x1080
  • Formato: MKV
  • Codec: H.264
  • Encoder: cinemaniahdd
  • Mediainfo: Clic para Mostrar Datos Ver
  • American Rust T02E01 AMZN WEB-DL 1080p Latino [CNMNHDD].mkv
    Format                      : Matroska
    Format version              : Version 4
    File size                   : 2.41 GiB
    Duration                    : 58 min 8 s
    Overall bit rate            : 5 930 kb/s
    Movie name                  : American Rust S02E01 - De vuelta a casa [1080p] - CinemaniaHDD.Net
    Encoded date                : UTC 2024-03-29 01:33:45
    Writing application         : mkvmerge v56.1.0 ('My Friend') 64-bit
    Writing library             : libebml v1.4.2 + libmatroska v1.6.4

    Video
    ID                          : 1
    Format                      : AVC
    Format/Info                 : Advanced Video Codec
    Format profile              : High@L4
    Format settings             : CABAC / 4 Ref Frames
    Format settings, CABAC      : Yes
    Format settings, Reference  : 4 frames
    Codec ID                    : V_MPEG4/ISO/AVC
    Duration                    : 58 min 8 s
    Bit rate mode               : Constant
    Bit rate                    : 4 007 kb/s
    Nominal bit rate            : 10 000 kb/s
    Width                       : 1 920 pixels
    Height                      : 1 080 pixels
    Display aspect ratio        : 16:9
    Frame rate mode             : Constant
    Frame rate                  : 23.976 (24000/1001) FPS
    Color space                 : YUV
    Chroma subsampling          : 4:2:0
    Bit depth                   : 8 bits
    Scan type                   : Progressive
    Bits/(Pixel*Frame)          : 0.081
    Stream size                 : 1.63 GiB (68%)
    Title                       : CinemaniaHDD.Net
    Default                     : Yes
    Forced                      : No
    Color range                 : Limited
    Color primaries             : BT.709
    Transfer characteristics    : BT.709
    Matrix coefficients         : BT.709

    Audio #1
    ID                          : 2
    Format                      : AC-3
    Format/Info                 : Audio Coding 3
    Commercial name             : Dolby Digital
    Codec ID                    : A_AC3
    Duration                    : 58 min 8 s
    Bit rate mode               : Constant
    Bit rate                    : 640 kb/s
    Channel(s)                  : 6 channels
    Channel layout              : L R C LFE Ls Rs
    Sampling rate               : 48.0 kHz
    Frame rate                  : 31.250 FPS (1536 SPF)
    Compression mode            : Lossy
    Stream size                 : 266 MiB (11%)
    Title                       : Español Latino [CinemaniaHDD]
    Language                    : Spanish
    Service kind                : Complete Main
    Default                     : Yes
    Forced                      : No

    Audio #2
    ID                          : 3
    Format                      : E-AC-3
    Format/Info                 : Enhanced AC-3
    Commercial name             : Dolby Digital Plus
    Codec ID                    : A_EAC3
    Duration                    : 58 min 8 s
    Bit rate mode               : Constant
    Bit rate                    : 640 kb/s
    Channel(s)                  : 6 channels
    Channel layout              : L R C LFE Ls Rs
    Sampling rate               : 48.0 kHz
    Frame rate                  : 31.250 FPS (1536 SPF)
    Compression mode            : Lossy
    Stream size                 : 266 MiB (11%)
    Title                       : Español Latino / EAC3 [CinemaniaHDD]
    Language                    : Spanish
    Service kind                : Complete Main
    Default                     : No
    Forced                      : No

    Audio #3
    ID                          : 4
    Format                      : E-AC-3
    Format/Info                 : Enhanced AC-3
    Commercial name             : Dolby Digital Plus
    Codec ID                    : A_EAC3
    Duration                    : 58 min 8 s
    Bit rate mode               : Constant
    Bit rate                    : 640 kb/s
    Channel(s)                  : 6 channels
    Channel layout              : L R C LFE Ls Rs
    Sampling rate               : 48.0 kHz
    Frame rate                  : 31.250 FPS (1536 SPF)
    Compression mode            : Lossy
    Stream size                 : 266 MiB (11%)
    Title                       : Inglés (Original) [CinemaniaHDD]
    Language                    : English
    Service kind                : Complete Main
    Default                     : No
    Forced                      : No

    Text #1
    ID                          : 5
    Format                      : UTF-8
    Codec ID                    : S_TEXT/UTF8
    Codec ID/Info               : UTF-8 Plain Text
    Duration                    : 42 min 41 s
    Bit rate                    : 0 b/s
    Count of elements           : 13
    Stream size                 : 287 Bytes (0%)
    Title                       : Forzados [CinemaniaHDD]
    Language                    : Spanish
    Default                     : Yes
    Forced                      : Yes

    Text #2
    ID                          : 6
    Format                      : UTF-8
    Codec ID                    : S_TEXT/UTF8
    Codec ID/Info               : UTF-8 Plain Text
    Duration                    : 57 min 27 s
    Bit rate                    : 54 b/s
    Count of elements           : 823
    Stream size                 : 22.9 KiB (0%)
    Title                       : Español Latino [CinemaniaHDD]
    Language                    : Spanish
    Default                     : No
    Forced                      : No

    Text #3
    ID                          : 7
    Format                      : UTF-8
    Codec ID                    : S_TEXT/UTF8
    Codec ID/Info               : UTF-8 Plain Text
    Duration                    : 55 min 25 s
    Bit rate                    : 73 b/s
    Count of elements           : 791
    Stream size                 : 29.7 KiB (0%)
    Title                       : Inglés [CinemaniaHDD]
    Language                    : English
    Default                     : No
    Forced                      : No

     

  • Peso: 2.41 GiB Aprox ---- 22 GiB in 10 Chapters.

Sinopsis

En medio de la llegada del fracking al sur de Pensilvania, Del Harris y Grace Poe intentan reconstruir sus vidas después de terribles sucesos, pero una cadena de asesinatos, aparentemente no relacionados, insinúa una conspiración mucho mayor que amenaza con todo lo que han llegado a amar.

Ficha técnica

Video trailer de la película

Enlaces de descarga

Rip de Bluray

Descargar American Rust (2024) Segunda Temporada AMZN WEB-DL 1080p Latino




Aportes de DPeliculasHDmega la pass es:dpeliculashdmega.org Aportes de CinemaniaHD la pass es:cinemaniahdd.com Aportes recientes:cinemaniahdd.net
Guardado en : Crimen , Drama , Series

Películas relacionadas

descargar American Rust (2024) Segunda Temporada AMZN WEB-DL 1080p Latino 1080p 1080p gratis, American Rust (2024) Segunda Temporada AMZN WEB-DL 1080p Latino 1080p mega 1 link, American Rust (2024) Segunda Temporada AMZN WEB-DL 1080p Latino 1080p serie completa, descargar American Rust (2024) Segunda Temporada AMZN WEB-DL 1080p Latino 1080p gratis en mega.

American Rust (2024) Segunda Temporada AMZN WEB-DL 1080p Latino pelicula full hd, American Rust (2024) Segunda Temporada AMZN WEB-DL 1080p Latino mega latino, American Rust (2024) Segunda Temporada AMZN WEB-DL 1080p Latino 4k latino, American Rust (2024) Segunda Temporada AMZN WEB-DL 1080p Latino pelicula completa, American Rust (2024) Segunda Temporada AMZN WEB-DL 1080p Latino descargar gratis, descargar American Rust (2024) Segunda Temporada AMZN WEB-DL 1080p Latino pelicula latino, American Rust (2024) Segunda Temporada AMZN WEB-DL 1080p Latino 1 link mega, American Rust (2024) Segunda Temporada AMZN WEB-DL 1080p Latino 1 link google drive, American Rust (2024) Segunda Temporada AMZN WEB-DL 1080p Latino hd 1080p latino.
Comentarios 0