×

¿Problemas para descargar con Mozilla, EDGE? Deshabilita la opción "Abrir vinculos en una pestaña nueva" tal como lo muestra ésta imagen.

American Rust (2021) Primera Temporada AMZN WEB-DL 1080p

306 vistas

Información de American Rust (2021) Primera Temporada AMZN WEB-DL 1080p

Datos de la película

  • Calidad: 1080p
  • Audio: Español Latino AC3 2.0 WEB-DL - Ingles AC3 5.1 WEB-DL
  • Subtitulos: Español Latino SRT- FORZADOS SRT
  • Resolución: 1920x1080
  • Formato: MKV
  • Codec: H.264
  • Encoder: cinemaniahdd
  • Mediainfo: Clic para Mostrar Datos Ver
  • American Rust T01E01 AMZN WEB-DL 1080p Latino [CNMNHDD].mkv
    Format                      : Matroska
    Format version              : Version 4
    File size                   : 3.03 GiB
    Duration                    : 1 h 3 min
    Overall bit rate            : 6 781 kb/s
    Movie name                  : American Rustl T01E01 - CinemaniaHDD.Net
    Encoded date                : UTC 2022-01-25 01:53:53
    Writing application         : mkvmerge v56.1.0 ('My Friend') 64-bit
    Writing library             : libebml v1.4.2 + libmatroska v1.6.4

    Video
    ID                          : 1
    Format                      : AVC
    Format/Info                 : Advanced Video Codec
    Format profile              : High@L4
    Format settings             : CABAC / 4 Ref Frames
    Format settings, CABAC      : Yes
    Format settings, Reference  : 4 frames
    Codec ID                    : V_MPEG4/ISO/AVC
    Duration                    : 1 h 3 min
    Bit rate mode               : Constant
    Bit rate                    : 5 758 kb/s
    Nominal bit rate            : 10 000 kb/s
    Width                       : 1 920 pixels
    Height                      : 1 080 pixels
    Display aspect ratio        : 16:9
    Frame rate mode             : Constant
    Frame rate                  : 23.976 (24000/1001) FPS
    Color space                 : YUV
    Chroma subsampling          : 4:2:0
    Bit depth                   : 8 bits
    Scan type                   : Progressive
    Bits/(Pixel*Frame)          : 0.116
    Stream size                 : 2.57 GiB (85%)
    Title                       : CinemaniaHDD
    Default                     : Yes
    Forced                      : No
    Color range                 : Limited
    Color primaries             : BT.709
    Transfer characteristics    : BT.709
    Matrix coefficients         : BT.709

    Audio #1
    ID                          : 2
    Format                      : AC-3
    Format/Info                 : Audio Coding 3
    Commercial name             : Dolby Digital
    Codec ID                    : A_AC3
    Duration                    : 1 h 3 min
    Bit rate mode               : Constant
    Bit rate                    : 384 kb/s
    Channel(s)                  : 2 channels
    Channel layout              : L R
    Sampling rate               : 48.0 kHz
    Frame rate                  : 31.250 FPS (1536 SPF)
    Compression mode            : Lossy
    Stream size                 : 174 MiB (6%)
    Title                       : Español latino [CinemaniaHDD]
    Language                    : Spanish
    Service kind                : Complete Main
    Default                     : Yes
    Forced                      : No

    Audio #2
    ID                          : 3
    Format                      : E-AC-3
    Format/Info                 : Enhanced AC-3
    Commercial name             : Dolby Digital Plus
    Codec ID                    : A_EAC3
    Duration                    : 1 h 3 min
    Bit rate mode               : Constant
    Bit rate                    : 640 kb/s
    Channel(s)                  : 6 channels
    Channel layout              : L R C LFE Ls Rs
    Sampling rate               : 48.0 kHz
    Frame rate                  : 31.250 FPS (1536 SPF)
    Compression mode            : Lossy
    Delay relative to video     : 18 ms
    Stream size                 : 292 MiB (9%)
    Title                       : Inglés [CinemaniaHDD]
    Language                    : English
    Service kind                : Complete Main
    Default                     : No
    Forced                      : No

    Text #1
    ID                          : 4
    Format                      : UTF-8
    Codec ID                    : S_TEXT/UTF8
    Codec ID/Info               : UTF-8 Plain Text
    Duration                    : 1 h 1 min
    Bit rate                    : 47 b/s
    Count of elements           : 645
    Stream size                 : 21.6 KiB (0%)
    Title                       : Español latino [CinemaniaHDD]
    Language                    : Spanish
    Default                     : No
    Forced                      : No

    Text #2
    ID                          : 5
    Format                      : UTF-8
    Codec ID                    : S_TEXT/UTF8
    Codec ID/Info               : UTF-8 Plain Text
    Duration                    : 1 h 2 min
    Bit rate                    : 69 b/s
    Count of elements           : 868
    Stream size                 : 31.6 KiB (0%)
    Title                       : Inglés [CinemaniaHDD]
    Language                    : English
    Default                     : No
    Forced                      : No

     

  • Peso: 3.03 GiB Aprox ---- 21 GiB in 9 Chapters.

Sinopsis

En una ciudad del cinturón obrero del suroeste de Pensilvania, el jefe de policía se verá obligado a decidir hasta dónde está dispuesto a llegar en su dilema entre el deber y el corazón cuando el hijo de la mujer que ama es acusado de asesinato.

Ficha técnica

Video trailer de la película

Enlaces de descarga

Rip de Bluray

Descargar American Rust (2021) Primera Temporada AMZN WEB-DL 1080p




Aportes de DPeliculasHDmega la pass es:dpeliculashdmega.org Aportes de CinemaniaHD la pass es:cinemaniahdd.com
Guardado en : Crimen , Drama , Series

Películas relacionadas

descargar American Rust (2021) Primera Temporada AMZN WEB-DL 1080p 1080p 1080p gratis, American Rust (2021) Primera Temporada AMZN WEB-DL 1080p 1080p mega 1 link, American Rust (2021) Primera Temporada AMZN WEB-DL 1080p 1080p serie completa, descargar American Rust (2021) Primera Temporada AMZN WEB-DL 1080p 1080p gratis en mega.

American Rust (2021) Primera Temporada AMZN WEB-DL 1080p pelicula full hd, American Rust (2021) Primera Temporada AMZN WEB-DL 1080p mega latino, American Rust (2021) Primera Temporada AMZN WEB-DL 1080p 4k latino, American Rust (2021) Primera Temporada AMZN WEB-DL 1080p pelicula completa, American Rust (2021) Primera Temporada AMZN WEB-DL 1080p descargar gratis, descargar American Rust (2021) Primera Temporada AMZN WEB-DL 1080p pelicula latino, American Rust (2021) Primera Temporada AMZN WEB-DL 1080p 1 link mega, American Rust (2021) Primera Temporada AMZN WEB-DL 1080p 1 link google drive, American Rust (2021) Primera Temporada AMZN WEB-DL 1080p hd 1080p latino.
Comentarios 0