×

¿Problemas para descargar con Mozilla, EDGE? Deshabilita la opción "Abrir vinculos en una pestaña nueva" tal como lo muestra ésta imagen.

American Pie: Las chicas mandan (2020) AMZN WEB-DL 1080p Latino

422 vistas

Información de American Pie: Las chicas mandan (2020) AMZN WEB-DL 1080p Latino

Datos de la película

  • Calidad: WEBDL
  • Audio: Español Latino E-AC3 5.1 AMAZON - Ingles E-AC3 5.1 AMAZON
  • Subtitulos: Español Latino SRT- FORZADOS SRT
  • Resolución: 1920x1080
  • Formato: MKV
  • Codec: H.264
  • Encoder: cinemaniahdd
  • Mediainfo: Clic para Mostrar Datos Ver
  • American Pie, Presents Girls' Rules (2020) AMZN WEB-DL 1080p Latino [CNMNHDD].mkv
    Format                      : Matroska
    Format version              : Version 4
    File size                   : 7.82 GiB
    Duration                    : 1 h 35 min
    Overall bit rate            : 11.7 Mb/s
    Movie name                  : American Pie, Las chicas mandan (2020) - CinemaniaHDD.Net
    Encoded date                : UTC 2020-10-07 00:07:31
    Writing application         : mkvmerge v51.0.0 ('I Wish') 64-bit
    Writing library             : libebml v1.4.0 + libmatroska v1.6.2

    Video
    ID                          : 1
    Format                      : AVC
    Format/Info                 : Advanced Video Codec
    Format profile              : High@L4
    Format settings             : CABAC / 4 Ref Frames
    Format settings, CABAC      : Yes
    Format settings, Reference  : 4 frames
    Codec ID                    : V_MPEG4/ISO/AVC
    Duration                    : 1 h 35 min
    Bit rate                    : 9 162 kb/s
    Width                       : 1 920 pixels
    Height                      : 1 080 pixels
    Display aspect ratio        : 16:9
    Frame rate mode             : Constant
    Frame rate                  : 23.976 (24000/1001) FPS
    Color space                 : YUV
    Chroma subsampling          : 4:2:0
    Bit depth                   : 8 bits
    Scan type                   : Progressive
    Bits/(Pixel*Frame)          : 0.184
    Stream size                 : 6.11 GiB (78%)
    Title                       : CinemaniaHDD
    Default                     : Yes
    Forced                      : No
    Color range                 : Limited
    Color primaries             : BT.709
    Transfer characteristics    : BT.709
    Matrix coefficients         : BT.709

    Audio #1
    ID                          : 2
    Format                      : AC-3
    Format/Info                 : Audio Coding 3
    Commercial name             : Dolby Digital
    Codec ID                    : A_AC3
    Duration                    : 1 h 35 min
    Bit rate mode               : Constant
    Bit rate                    : 640 kb/s
    Channel(s)                  : 6 channels
    Channel layout              : L R C LFE Ls Rs
    Sampling rate               : 48.0 kHz
    Frame rate                  : 31.250 FPS (1536 SPF)
    Compression mode            : Lossy
    Delay relative to video     : 1 s 133 ms
    Stream size                 : 437 MiB (5%)
    Title                       : Español latino - AC3 [CinemaniaHDD]
    Language                    : Spanish
    Service kind                : Complete Main
    Default                     : Yes
    Forced                      : No

    Audio #2
    ID                          : 3
    Format                      : E-AC-3
    Format/Info                 : Enhanced AC-3
    Commercial name             : Dolby Digital Plus
    Codec ID                    : A_EAC3
    Duration                    : 1 h 35 min
    Bit rate mode               : Constant
    Bit rate                    : 640 kb/s
    Channel(s)                  : 6 channels
    Channel layout              : L R C LFE Ls Rs
    Sampling rate               : 48.0 kHz
    Frame rate                  : 31.250 FPS (1536 SPF)
    Compression mode            : Lossy
    Delay relative to video     : 1 s 133 ms
    Stream size                 : 437 MiB (5%)
    Title                       : Español latino - E-AC3 [CinemaniaHDD]
    Language                    : Spanish
    Service kind                : Complete Main
    Default                     : No
    Forced                      : No

    Audio #3
    ID                          : 4
    Format                      : E-AC-3
    Format/Info                 : Enhanced AC-3
    Commercial name             : Dolby Digital Plus
    Codec ID                    : A_EAC3
    Duration                    : 1 h 35 min
    Bit rate mode               : Constant
    Bit rate                    : 640 kb/s
    Channel(s)                  : 6 channels
    Channel layout              : L R C LFE Ls Rs
    Sampling rate               : 48.0 kHz
    Frame rate                  : 31.250 FPS (1536 SPF)
    Compression mode            : Lossy
    Delay relative to video     : 1 s 133 ms
    Stream size                 : 437 MiB (5%)
    Title                       : Inglés - E-AC3 [CinemaniaHDD]
    Language                    : English
    Service kind                : Complete Main
    Default                     : No
    Forced                      : No

    Audio #4
    ID                          : 5
    Format                      : AC-3
    Format/Info                 : Audio Coding 3
    Commercial name             : Dolby Digital
    Codec ID                    : A_AC3
    Duration                    : 1 h 35 min
    Bit rate mode               : Constant
    Bit rate                    : 640 kb/s
    Channel(s)                  : 6 channels
    Channel layout              : L R C LFE Ls Rs
    Sampling rate               : 48.0 kHz
    Frame rate                  : 31.250 FPS (1536 SPF)
    Compression mode            : Lossy
    Delay relative to video     : 1 s 133 ms
    Stream size                 : 437 MiB (5%)
    Title                       : Inglés - AC3 [CinemaniaHDD]
    Language                    : English
    Service kind                : Complete Main
    Default                     : No
    Forced                      : No

    Text #1
    ID                          : 6
    Format                      : UTF-8
    Codec ID                    : S_TEXT/UTF8
    Codec ID/Info               : UTF-8 Plain Text
    Duration                    : 32 min 30 s
    Bit rate                    : 0 b/s
    Count of elements           : 2
    Stream size                 : 54.0 Bytes (0%)
    Title                       : Forzados [CinemaniaHDD]
    Language                    : Spanish
    Default                     : Yes
    Forced                      : Yes

    Text #2
    ID                          : 7
    Format                      : UTF-8
    Codec ID                    : S_TEXT/UTF8
    Codec ID/Info               : UTF-8 Plain Text
    Duration                    : 1 h 34 min
    Bit rate                    : 72 b/s
    Count of elements           : 2070
    Stream size                 : 50.8 KiB (0%)
    Title                       : Español latino [CinemaniaHDD]
    Language                    : Spanish
    Default                     : No
    Forced                      : No

    Text #3
    ID                          : 8
    Format                      : UTF-8
    Codec ID                    : S_TEXT/UTF8
    Codec ID/Info               : UTF-8 Plain Text
    Duration                    : 1 h 35 min
    Bit rate                    : 91 b/s
    Count of elements           : 3217
    Stream size                 : 63.8 KiB (0%)
    Title                       : Inglés [CinemaniaHDD]
    Language                    : English
    Default                     : No
    Forced                      : No

     

  • Peso: 7.82 GiB

Sinopsis

Cuatro amigas hacen un pacto para cambiar sus vidas amorosas en el último año de la escuela, pero la llegada de un nuevo alumno interfiere en sus planes.

Ficha técnica

  • Titulo original: American Pie Presents: Girls' Rules
  • Fecha de lanzamiento: 06-10-2020 (United States of America)
  • Director: Mike Elliott
  • Género: Comedia

Video trailer de la película

Enlaces de descarga

Rip de Bluray

Descargar American Pie: Las chicas mandan (2020) AMZN WEB-DL 1080p Latino




Aportes de DPeliculasHDmega la pass es:dpeliculashdmega.org Aportes de CinemaniaHD la pass es:cinemaniahdd.com
Guardado en : Comedia

Películas relacionadas

descargar American Pie: Las chicas mandan (2020) AMZN WEB-DL 1080p Latino WEBDL 1080p gratis, American Pie: Las chicas mandan (2020) AMZN WEB-DL 1080p Latino WEBDL mega 1 link, American Pie: Las chicas mandan (2020) AMZN WEB-DL 1080p Latino WEBDL pelicula completa, descargar American Pie: Las chicas mandan (2020) AMZN WEB-DL 1080p Latino WEBDL gratis en mega.

American Pie: Las chicas mandan (2020) AMZN WEB-DL 1080p Latino pelicula full hd, American Pie: Las chicas mandan (2020) AMZN WEB-DL 1080p Latino mega latino, American Pie: Las chicas mandan (2020) AMZN WEB-DL 1080p Latino 4k latino, American Pie: Las chicas mandan (2020) AMZN WEB-DL 1080p Latino pelicula completa, American Pie: Las chicas mandan (2020) AMZN WEB-DL 1080p Latino descargar gratis, descargar American Pie: Las chicas mandan (2020) AMZN WEB-DL 1080p Latino pelicula latino, American Pie: Las chicas mandan (2020) AMZN WEB-DL 1080p Latino 1 link mega, American Pie: Las chicas mandan (2020) AMZN WEB-DL 1080p Latino 1 link google drive, American Pie: Las chicas mandan (2020) AMZN WEB-DL 1080p Latino hd 1080p latino.
Comentarios 1
  • Barloco - 06 octubre, 2020

    Muy agradecido por la calidad de subida. Saludos.