×

¿Problemas para descargar con Mozilla, EDGE? Deshabilita la opción "Abrir vinculos en una pestaña nueva" tal como lo muestra ésta imagen.

American Pie – El Reencuentro (2012) UNRATED REMUX 1080p Latino – CMHDD

272 vistas

Información de American Pie – El Reencuentro (2012) UNRATED REMUX 1080p Latino – CMHDD

Datos de la película

  • Calidad: Full 1080p
  • Audio: Español Latino DTS 5.1 BLURAY - Ingles DTS-HD 5.1 BLURAY
  • Subtitulos: Español Latino PGS
  • Resolución: 1920x1080p
  • Formato: MKV
  • Codec: H.264
  • Encoder: Dracarys
  • Mediainfo: Clic para Mostrar Datos Ver
  • Format                      : Matroska
    Format version              : Version 4
    File size                   : 19.1 GiB
    Duration                    : 1 h 53 min
    Overall bit rate mode       : Variable
    Overall bit rate            : 24.0 Mb/s
    Movie name                  : American Pie - El Reencuentro (2012) UNRATED REMUX 1080p Latino - CMHDD
    Encoded date                : UTC 2021-01-04 00:45:04
    Writing application         : mkvmerge v51.0.0 ('I Wish') 64-bit
    Writing library             : libebml v1.4.0 + libmatroska v1.6.2

    Video
    ID                          : 1
    Format                      : AVC
    Format/Info                 : Advanced Video Codec
    Format profile              : High@L4.1
    Format settings             : CABAC / 4 Ref Frames
    Format settings, CABAC      : Yes
    Format settings, Reference  : 4 frames
    Codec ID                    : V_MPEG4/ISO/AVC
    Duration                    : 1 h 53 min
    Bit rate mode               : Variable
    Bit rate                    : 19.7 Mb/s
    Maximum bit rate            : 35.0 Mb/s
    Width                       : 1 920 pixels
    Height                      : 1 080 pixels
    Display aspect ratio        : 16:9
    Frame rate mode             : Constant
    Frame rate                  : 23.976 (24000/1001) FPS
    Color space                 : YUV
    Chroma subsampling          : 4:2:0
    Bit depth                   : 8 bits
    Scan type                   : Progressive
    Bits/(Pixel*Frame)          : 0.396
    Stream size                 : 15.7 GiB (82%)
    Default                     : Yes
    Forced                      : No

    Audio #1
    ID                          : 2
    Format                      : DTS
    Format/Info                 : Digital Theater Systems
    Codec ID                    : A_DTS
    Duration                    : 1 h 53 min
    Bit rate mode               : Constant
    Bit rate                    : 768 kb/s
    Channel(s)                  : 6 channels
    Channel layout              : C L R Ls Rs LFE
    Sampling rate               : 48.0 kHz
    Frame rate                  : 93.750 FPS (512 SPF)
    Bit depth                   : 24 bits
    Compression mode            : Lossy
    Stream size                 : 625 MiB (3%)
    Language                    : Spanish
    Default                     : Yes
    Forced                      : No

    Audio #2
    ID                          : 3
    Format                      : DTS XLL
    Format/Info                 : Digital Theater Systems
    Commercial name             : DTS-HD Master Audio
    Codec ID                    : A_DTS
    Duration                    : 1 h 53 min
    Bit rate mode               : Variable
    Bit rate                    : 3 553 kb/s
    Channel(s)                  : 6 channels
    Channel layout              : C L R Ls Rs LFE
    Sampling rate               : 48.0 kHz
    Frame rate                  : 93.750 FPS (512 SPF)
    Bit depth                   : 24 bits
    Compression mode            : Lossless
    Stream size                 : 2.83 GiB (15%)
    Language                    : English
    Default                     : No
    Forced                      : No

    Text #1
    ID                          : 4
    Format                      : UTF-8
    Codec ID                    : S_TEXT/UTF8
    Codec ID/Info               : UTF-8 Plain Text
    Duration                    : 1 h 46 min
    Bit rate                    : 61 b/s
    Count of elements           : 1855
    Stream size                 : 48.2 KiB (0%)
    Language                    : Spanish
    Default                     : No
    Forced                      : No

    Text #2
    ID                          : 5
    Format                      : PGS
    Muxing mode                 : zlib
    Codec ID                    : S_HDMV/PGS
    Codec ID/Info               : Picture based subtitle format used on BDs/HD-DVDs
    Duration                    : 1 h 53 min
    Bit rate                    : 36.0 kb/s
    Count of elements           : 3716
    Stream size                 : 29.3 MiB (0%)
    Language                    : Spanish
    Default                     : No
    Forced                      : No

    Menu #1
    00:00:00.000                : en:00:00:00.000
    00:04:48.747                : en:00:04:48.747
    00:08:58.288                : en:00:08:58.288
    00:14:26.240                : en:00:14:26.240
    00:18:52.173                : en:00:18:52.173
    00:23:37.624                : en:00:23:37.624
    00:27:29.147                : en:00:27:29.147
    00:32:01.628                : en:00:32:01.628
    00:40:35.850                : en:00:40:35.850
    00:45:55.127                : en:00:45:55.127
    00:52:51.335                : en:00:52:51.335
    00:59:54.757                : en:00:59:54.757
    01:06:20.560                : en:01:06:20.560
    01:10:36.023                : en:01:10:36.023
    01:14:37.598                : en:01:14:37.598
    01:23:35.969                : en:01:23:35.969
    01:28:30.305                : en:01:28:30.305
    01:36:36.457                : en:01:36:36.457
    01:43:10.642                : en:01:43:10.642
    01:49:15.173                : en:01:49:15.173

  • Peso: 19.1 GiB

Sinopsis

Un grupo de viejos amigos vuelven a reunirse. Jim y Michelle siguen felizmente casados, aunque hay una vecina que se ha enamorado de él. Además, la cinta sexual con Nadia se ha convertido en uno de los videos más vistos de Youtube. Por su parte, Oz vive en una mansión de Malibú, pero su novia parece sólo interesada por su dinero. Mientras tanto, la vida de Stifler sigue siendo un desastre. Heather sale con un cirujano que intenta parecer más joven, y Finch, que ha viajado por el mundo, intenta ligar con Trish, una camarera amiga de Michelle.

Ficha técnica

Video trailer de la película

Enlaces de descarga

Rip de Bluray

Descargar American Pie – El Reencuentro (2012) UNRATED REMUX 1080p Latino – CMHDD


Aportes de DPeliculasHDmega la pass es:dpeliculashdmega.org Aportes de CinemaniaHD la pass es:cinemaniahdd.com
Guardado en : Comedia

Películas relacionadas

descargar American Pie – El Reencuentro (2012) UNRATED REMUX 1080p Latino – CMHDD Full 1080p 1080p gratis, American Pie – El Reencuentro (2012) UNRATED REMUX 1080p Latino – CMHDD Full 1080p mega 1 link, American Pie – El Reencuentro (2012) UNRATED REMUX 1080p Latino – CMHDD Full 1080p pelicula completa, descargar American Pie – El Reencuentro (2012) UNRATED REMUX 1080p Latino – CMHDD Full 1080p gratis en mega.

American Pie – El Reencuentro (2012) UNRATED REMUX 1080p Latino – CMHDD pelicula full hd, American Pie – El Reencuentro (2012) UNRATED REMUX 1080p Latino – CMHDD mega latino, American Pie – El Reencuentro (2012) UNRATED REMUX 1080p Latino – CMHDD 4k latino, American Pie – El Reencuentro (2012) UNRATED REMUX 1080p Latino – CMHDD pelicula completa, American Pie – El Reencuentro (2012) UNRATED REMUX 1080p Latino – CMHDD descargar gratis, descargar American Pie – El Reencuentro (2012) UNRATED REMUX 1080p Latino – CMHDD pelicula latino, American Pie – El Reencuentro (2012) UNRATED REMUX 1080p Latino – CMHDD 1 link mega, American Pie – El Reencuentro (2012) UNRATED REMUX 1080p Latino – CMHDD 1 link google drive, American Pie – El Reencuentro (2012) UNRATED REMUX 1080p Latino – CMHDD hd 1080p latino.
Comentarios 0