×

¿Problemas para descargar con Mozilla, EDGE? Deshabilita la opción "Abrir vinculos en una pestaña nueva" tal como lo muestra ésta imagen.

American Pie 3 (2003) UNRATED REMUX 1080p Latino – CMHDD

241 vistas

Información de American Pie 3 (2003) UNRATED REMUX 1080p Latino – CMHDD

Datos de la película

  • Calidad: Full 1080p
  • Audio: Español Latino DTS 5.1 BLURAY - Ingles DTS-HD 5.1 BLURAY
  • Subtitulos: Español Latino PGS
  • Resolución: 1920x1080p
  • Formato: MKV
  • Codec: H.264
  • Encoder: Dracarys
  • Mediainfo: Clic para Mostrar Datos Ver
  • Format                      : Matroska
    Format version              : Version 4
    File size                   : 24.6 GiB
    Duration                    : 1 h 43 min
    Overall bit rate mode       : Variable
    Overall bit rate            : 34.1 Mb/s
    Movie name                  : American Pie 3 (2003) UNRATED REMUX 1080p Latino - CMHDD
    Encoded date                : UTC 2021-01-04 02:10:26
    Writing application         : mkvmerge v51.0.0 ('I Wish') 64-bit
    Writing library             : libebml v1.4.0 + libmatroska v1.6.2

    Video
    ID                          : 1
    Format                      : AVC
    Format/Info                 : Advanced Video Codec
    Format profile              : High@L4.1
    Format settings             : CABAC / 4 Ref Frames
    Format settings, CABAC      : Yes
    Format settings, Reference  : 4 frames
    Codec ID                    : V_MPEG4/ISO/AVC
    Duration                    : 1 h 43 min
    Bit rate mode               : Variable
    Bit rate                    : 29.5 Mb/s
    Maximum bit rate            : 35.0 Mb/s
    Width                       : 1 920 pixels
    Height                      : 1 080 pixels
    Display aspect ratio        : 16:9
    Frame rate mode             : Constant
    Frame rate                  : 23.976 (24000/1001) FPS
    Color space                 : YUV
    Chroma subsampling          : 4:2:0
    Bit depth                   : 8 bits
    Scan type                   : Progressive
    Bits/(Pixel*Frame)          : 0.594
    Stream size                 : 21.3 GiB (87%)
    Default                     : Yes
    Forced                      : No
    Color range                 : Limited
    Color primaries             : BT.709
    Transfer characteristics    : BT.709
    Matrix coefficients         : BT.709

    Audio #1
    ID                          : 2
    Format                      : DTS
    Format/Info                 : Digital Theater Systems
    Codec ID                    : A_DTS
    Duration                    : 1 h 43 min
    Bit rate mode               : Constant
    Bit rate                    : 768 kb/s
    Channel(s)                  : 6 channels
    Channel layout              : C L R Ls Rs LFE
    Sampling rate               : 48.0 kHz
    Frame rate                  : 93.750 FPS (512 SPF)
    Bit depth                   : 24 bits
    Compression mode            : Lossy
    Stream size                 : 568 MiB (2%)
    Language                    : Spanish
    Default                     : Yes
    Forced                      : No

    Audio #2
    ID                          : 3
    Format                      : DTS XLL
    Format/Info                 : Digital Theater Systems
    Commercial name             : DTS-HD Master Audio
    Codec ID                    : A_DTS
    Duration                    : 1 h 43 min
    Bit rate mode               : Variable
    Bit rate                    : 3 770 kb/s
    Channel(s)                  : 6 channels
    Channel layout              : C L R Ls Rs LFE
    Sampling rate               : 48.0 kHz
    Frame rate                  : 93.750 FPS (512 SPF)
    Bit depth                   : 24 bits
    Compression mode            : Lossless
    Stream size                 : 2.72 GiB (11%)
    Language                    : English
    Default                     : No
    Forced                      : No

    Text #1
    ID                          : 4
    Format                      : UTF-8
    Codec ID                    : S_TEXT/UTF8
    Codec ID/Info               : UTF-8 Plain Text
    Duration                    : 1 h 37 min
    Bit rate                    : 79 b/s
    Count of elements           : 1445
    Stream size                 : 56.8 KiB (0%)
    Language                    : Spanish
    Default                     : No
    Forced                      : No

    Text #2
    ID                          : 5
    Format                      : PGS
    Muxing mode                 : zlib
    Codec ID                    : S_HDMV/PGS
    Codec ID/Info               : Picture based subtitle format used on BDs/HD-DVDs
    Duration                    : 1 h 37 min
    Bit rate                    : 248 b/s
    Count of elements           : 42
    Stream size                 : 178 KiB (0%)
    Language                    : Spanish
    Default                     : Yes
    Forced                      : No

    Menu
    00:00:00.000                : en:Chapter 01
    00:07:26.195                : en:Chapter 02
    00:13:59.630                : en:Chapter 03
    00:16:41.375                : en:Chapter 04
    00:20:30.520                : en:Chapter 05
    00:21:46.012                : en:Chapter 06
    00:25:01.333                : en:Chapter 07
    00:29:55.710                : en:Chapter 08
    00:33:16.828                : en:Chapter 09
    00:38:38.607                : en:Chapter 10
    00:41:18.976                : en:Chapter 11
    00:42:41.767                : en:Chapter 12
    00:59:03.414                : en:Chapter 13
    01:02:57.231                : en:Chapter 14
    01:04:56.142                : en:Chapter 15
    01:08:15.883                : en:Chapter 16
    01:11:03.383                : en:Chapter 17
    01:13:10.677                : en:Chapter 18
    01:15:59.096                : en:Chapter 19
    01:19:02.362                : en:Chapter 20
    01:23:32.715                : en:Chapter 21
    01:27:11.434                : en:Chapter 22
    01:29:22.148                : en:Chapter 23
    01:30:30.132                : en:Chapter 24
    01:33:27.601                : en:Chapter 25
    01:36:12.349                : en:Chapter 26
    01:37:19.958                : en:Chapter 27
    01:38:10.843                : en:Chapter 28
     

  • Peso: 24.6 GiB

Sinopsis

Los años han pasado desde que vimos por última vez al grupo de East Great Falls High. Ahora Jim y Michelle están a punto de casarse, y antes de la boda se tiene que organizar la despedida de soltero, que corre a cargo, como no, de Stifler. Para que sea perfecta, intentarán reunir de nuevo al grupo.

Ficha técnica

Video trailer de la película

Enlaces de descarga

Rip de Bluray

Descargar American Pie 3 (2003) UNRATED REMUX 1080p Latino – CMHDD


Aportes de DPeliculasHDmega la pass es:dpeliculashdmega.org Aportes de CinemaniaHD la pass es:cinemaniahdd.com
Guardado en : Comedia , Romance

Películas relacionadas

  • Abracadabra 2 (2022) D+ WEB-DL 4K UHD HDR Latino

    Abracadabra 2 (2022) D+ WEB-DL 4K UHD HDR Latino

    2022
    Abracadabra 2 (2022) D+ WEB-DL 4K UHD HDR Latino

    1h 45m 2022

    Descargar Abracadabra 2 (2022) D+ WEB-DL 4K UHD HDR Latino. Han pasado 29 años desde que alguien encendió...

    Director: Anne Fletcher

    Género: 4K HDR

    Actores: Whitney Peak

  • Abracadabra 2 (2022) D+ WEB-DL 1080p Latino

    Abracadabra 2 (2022) D+ WEB-DL 1080p Latino

    2022
    Abracadabra 2 (2022) D+ WEB-DL 1080p Latino

    1h 45m 2022

    Descargar Abracadabra 2 (2022) D+ WEB-DL 1080p Latino. Han pasado 29 años desde que alguien encendió...

    Director: Anne Fletcher

    Género: Comedia

    Actores: Whitney Peak

  • Hot Summer Nights (2017) 4K-SDR WEB-DL 2160p Latino

    Hot Summer Nights (2017) 4K-SDR WEB-DL 2160p Latino

    2018
    Hot Summer Nights (2017) 4K-SDR WEB-DL 2160p Latino

    1h 47m 2018

    Daniel es un tímido adolescente que comienza a vender marihuana, entrando en un mundo tentador pero...

    Director: Stephen W. Moore

    Género: 4K HDR

    Actores: Zack Shires

  • Hot Summer Nights (2017) AMZN WEB-DL 1080p Latino

    Hot Summer Nights (2017) AMZN WEB-DL 1080p Latino

    2018
    Hot Summer Nights (2017) AMZN WEB-DL 1080p Latino

    1h 47m 2018

    Daniel es un tímido adolescente que comienza a vender marihuana, entrando en un mundo tentador pero...

    Director: Stephen W. Moore

    Género: Comedia

    Actores: Zack Shires

descargar American Pie 3 (2003) UNRATED REMUX 1080p Latino – CMHDD Full 1080p 1080p gratis, American Pie 3 (2003) UNRATED REMUX 1080p Latino – CMHDD Full 1080p mega 1 link, American Pie 3 (2003) UNRATED REMUX 1080p Latino – CMHDD Full 1080p pelicula completa, descargar American Pie 3 (2003) UNRATED REMUX 1080p Latino – CMHDD Full 1080p gratis en mega.

American Pie 3 (2003) UNRATED REMUX 1080p Latino – CMHDD pelicula full hd, American Pie 3 (2003) UNRATED REMUX 1080p Latino – CMHDD mega latino, American Pie 3 (2003) UNRATED REMUX 1080p Latino – CMHDD 4k latino, American Pie 3 (2003) UNRATED REMUX 1080p Latino – CMHDD pelicula completa, American Pie 3 (2003) UNRATED REMUX 1080p Latino – CMHDD descargar gratis, descargar American Pie 3 (2003) UNRATED REMUX 1080p Latino – CMHDD pelicula latino, American Pie 3 (2003) UNRATED REMUX 1080p Latino – CMHDD 1 link mega, American Pie 3 (2003) UNRATED REMUX 1080p Latino – CMHDD 1 link google drive, American Pie 3 (2003) UNRATED REMUX 1080p Latino – CMHDD hd 1080p latino.
Comentarios 0