×

¿Problemas para descargar con Mozilla, EDGE? Deshabilita la opción "Abrir vinculos en una pestaña nueva" tal como lo muestra ésta imagen.

American Pie 2 (2001) UNRATED REMUX 1080p Latino – CMHDD

314 vistas

Información de American Pie 2 (2001) UNRATED REMUX 1080p Latino – CMHDD

Datos de la película

  • Calidad: Full 1080p
  • Audio: Español Latino DTS 5.1 BLURAY - Ingles DTS-HD 5.1 BLURAY
  • Subtitulos: Español Latino PGS
  • Resolución: 1920x1080p
  • Formato: MKV
  • Codec: H.264
  • Encoder: Dracarys
  • Mediainfo: Clic para Mostrar Datos Ver
  • Format                      : Matroska
    Format version              : Version 4
    File size                   : 18.2 GiB
    Duration                    : 1 h 50 min
    Overall bit rate mode       : Variable
    Overall bit rate            : 23.6 Mb/s
    Movie name                  : American Pie 2 (2001) UNRATED REMUX 1080p Latino - CMHDD
    Encoded date                : UTC 2021-01-04 01:58:04
    Writing application         : mkvmerge v51.0.0 ('I Wish') 64-bit
    Writing library             : libebml v1.4.0 + libmatroska v1.6.2

    Video
    ID                          : 1
    Format                      : VC-1
    Format profile              : Advanced@L3
    Codec ID                    : V_MS/VFW/FOURCC / WVC1
    Codec ID/Hint               : Microsoft
    Duration                    : 1 h 50 min
    Bit rate                    : 18.5 Mb/s
    Width                       : 1 920 pixels
    Height                      : 1 080 pixels
    Display aspect ratio        : 16:9
    Frame rate mode             : Constant
    Frame rate                  : 23.976 (24000/1001) FPS
    Color space                 : YUV
    Chroma subsampling          : 4:2:0
    Bit depth                   : 8 bits
    Scan type                   : Progressive
    Compression mode            : Lossy
    Bits/(Pixel*Frame)          : 0.373
    Stream size                 : 14.3 GiB (79%)
    Default                     : Yes
    Forced                      : No

    Audio #1
    ID                          : 2
    Format                      : DTS
    Format/Info                 : Digital Theater Systems
    Codec ID                    : A_DTS
    Duration                    : 1 h 50 min
    Bit rate mode               : Constant
    Bit rate                    : 768 kb/s
    Channel(s)                  : 6 channels
    Channel layout              : C L R Ls Rs LFE
    Sampling rate               : 48.0 kHz
    Frame rate                  : 93.750 FPS (512 SPF)
    Bit depth                   : 24 bits
    Compression mode            : Lossy
    Stream size                 : 608 MiB (3%)
    Language                    : Spanish
    Default                     : Yes
    Forced                      : No

    Audio #2
    ID                          : 3
    Format                      : DTS XLL
    Format/Info                 : Digital Theater Systems
    Commercial name             : DTS-HD Master Audio
    Codec ID                    : A_DTS
    Duration                    : 1 h 50 min
    Bit rate mode               : Variable
    Bit rate                    : 4 242 kb/s
    Channel(s)                  : 6 channels
    Channel layout              : C L R Ls Rs LFE
    Sampling rate               : 48.0 kHz
    Frame rate                  : 93.750 FPS (512 SPF)
    Bit depth                   : 24 bits
    Compression mode            : Lossless
    Stream size                 : 3.28 GiB (18%)
    Language                    : English
    Default                     : No
    Forced                      : No

    Text #1
    ID                          : 4
    Format                      : UTF-8
    Codec ID                    : S_TEXT/UTF8
    Codec ID/Info               : UTF-8 Plain Text
    Duration                    : 1 h 43 min
    Bit rate                    : 64 b/s
    Count of elements           : 1441
    Stream size                 : 48.5 KiB (0%)
    Default                     : No
    Forced                      : No

    Text #2
    ID                          : 5
    Format                      : PGS
    Muxing mode                 : zlib
    Codec ID                    : S_HDMV/PGS
    Codec ID/Info               : Picture based subtitle format used on BDs/HD-DVDs
    Duration                    : 54 min 38 s
    Bit rate                    : 171 b/s
    Count of elements           : 10
    Stream size                 : 68.7 KiB (0%)
    Language                    : Spanish
    Default                     : Yes
    Forced                      : No

    Menu
    00:00:00.000                : en:Chapter 01
    00:06:15.291                : en:Chapter 02
    00:08:33.930                : en:Chapter 03
    00:15:53.661                : en:Chapter 04
    00:20:22.012                : en:Chapter 05
    00:22:41.818                : en:Chapter 06
    00:27:22.223                : en:Chapter 07
    00:34:31.277                : en:Chapter 08
    00:38:09.203                : en:Chapter 09
    00:41:33.407                : en:Chapter 10
    00:44:11.106                : en:Chapter 11
    00:57:56.139                : en:Chapter 12
    01:05:34.305                : en:Chapter 13
    01:14:42.227                : en:Chapter 14
    01:18:09.935                : en:Chapter 15
    01:24:02.829                : en:Chapter 16
    01:28:26.301                : en:Chapter 17
    01:36:27.448                : en:Chapter 18
    01:41:07.603                : en:Chapter 19
    01:44:04.613                : en:Chapter 20

  • Peso: 18.2 GiB

Sinopsis

Los protagonistas masculinos de la primera entrega, entonces obsesionados por perder la virginidad, se reencuentran en su pueblo natal tras su primer año en la universidad. Ha pasado un año, y Jim, Oz, Kevin y Finch deciden para pasar juntos el verano. Para poder tener independencia y perseguir mujeres, como tradicionalmente acostumbran, aunque sin éxito, deciden alquilar una casa en la playa. Como el alquiler es algo caro deciden invitar también a Stifler, quien además de tener mucho dinero, supuestamente sabe mucho de mujeres, aunque su personalidad es detestable.

Ficha técnica

Video trailer de la película

Enlaces de descarga

Rip de Bluray

Descargar American Pie 2 (2001) UNRATED REMUX 1080p Latino – CMHDD


Aportes de DPeliculasHDmega la pass es:dpeliculashdmega.org Aportes de CinemaniaHD la pass es:cinemaniahdd.com
Guardado en : Comedia , Romance

Películas relacionadas

  • Abracadabra 2 (2022) D+ WEB-DL 4K UHD HDR Latino

    Abracadabra 2 (2022) D+ WEB-DL 4K UHD HDR Latino

    2022
    Abracadabra 2 (2022) D+ WEB-DL 4K UHD HDR Latino

    1h 45m 2022

    Descargar Abracadabra 2 (2022) D+ WEB-DL 4K UHD HDR Latino. Han pasado 29 años desde que alguien encendió...

    Director: Anne Fletcher

    Género: 4K HDR

    Actores: Whitney Peak

  • Abracadabra 2 (2022) D+ WEB-DL 1080p Latino

    Abracadabra 2 (2022) D+ WEB-DL 1080p Latino

    2022
    Abracadabra 2 (2022) D+ WEB-DL 1080p Latino

    1h 45m 2022

    Descargar Abracadabra 2 (2022) D+ WEB-DL 1080p Latino. Han pasado 29 años desde que alguien encendió...

    Director: Anne Fletcher

    Género: Comedia

    Actores: Whitney Peak

  • Hot Summer Nights (2017) 4K-SDR WEB-DL 2160p Latino

    Hot Summer Nights (2017) 4K-SDR WEB-DL 2160p Latino

    2018
    Hot Summer Nights (2017) 4K-SDR WEB-DL 2160p Latino

    1h 47m 2018

    Daniel es un tímido adolescente que comienza a vender marihuana, entrando en un mundo tentador pero...

    Director: Stephen W. Moore

    Género: 4K HDR

    Actores: Zack Shires

  • Hot Summer Nights (2017) AMZN WEB-DL 1080p Latino

    Hot Summer Nights (2017) AMZN WEB-DL 1080p Latino

    2018
    Hot Summer Nights (2017) AMZN WEB-DL 1080p Latino

    1h 47m 2018

    Daniel es un tímido adolescente que comienza a vender marihuana, entrando en un mundo tentador pero...

    Director: Stephen W. Moore

    Género: Comedia

    Actores: Zack Shires

descargar American Pie 2 (2001) UNRATED REMUX 1080p Latino – CMHDD Full 1080p 1080p gratis, American Pie 2 (2001) UNRATED REMUX 1080p Latino – CMHDD Full 1080p mega 1 link, American Pie 2 (2001) UNRATED REMUX 1080p Latino – CMHDD Full 1080p pelicula completa, descargar American Pie 2 (2001) UNRATED REMUX 1080p Latino – CMHDD Full 1080p gratis en mega.

American Pie 2 (2001) UNRATED REMUX 1080p Latino – CMHDD pelicula full hd, American Pie 2 (2001) UNRATED REMUX 1080p Latino – CMHDD mega latino, American Pie 2 (2001) UNRATED REMUX 1080p Latino – CMHDD 4k latino, American Pie 2 (2001) UNRATED REMUX 1080p Latino – CMHDD pelicula completa, American Pie 2 (2001) UNRATED REMUX 1080p Latino – CMHDD descargar gratis, descargar American Pie 2 (2001) UNRATED REMUX 1080p Latino – CMHDD pelicula latino, American Pie 2 (2001) UNRATED REMUX 1080p Latino – CMHDD 1 link mega, American Pie 2 (2001) UNRATED REMUX 1080p Latino – CMHDD 1 link google drive, American Pie 2 (2001) UNRATED REMUX 1080p Latino – CMHDD hd 1080p latino.
Comentarios 0