×

¿Problemas para descargar con Mozilla, EDGE? Deshabilita la opción "Abrir vinculos en una pestaña nueva" tal como lo muestra ésta imagen.

American Pie (1999) UNRATED REMUX 1080p Latino – CMHDD

400 vistas

Información de American Pie (1999) UNRATED REMUX 1080p Latino – CMHDD

Datos de la película

  • Calidad: Full 1080p
  • Audio: Español Latino DTS 2.0 BLURAY - Ingles DTS 5.1 BLURAY
  • Subtitulos: Español Latino PGS
  • Resolución: 1920x1080p
  • Formato: MKV
  • Codec: H.264
  • Encoder: Dracarys
  • Mediainfo: Clic para Mostrar Datos Ver
  • Format                      : Matroska
    Format version              : Version 4
    File size                   : 22.3 GiB
    Duration                    : 1 h 35 min
    Overall bit rate mode       : Variable
    Overall bit rate            : 33.4 Mb/s
    Movie name                  : American Pie (1999) UNRATED REMUX 1080p Latino - CMHDD
    Encoded date                : UTC 2021-01-03 21:28:55
    Writing application         : mkvmerge v51.0.0 ('I Wish') 64-bit
    Writing library             : libebml v1.4.0 + libmatroska v1.6.2

    Video
    ID                          : 1
    Format                      : AVC
    Format/Info                 : Advanced Video Codec
    Format profile              : High@L4.1
    Format settings             : CABAC / 4 Ref Frames
    Format settings, CABAC      : Yes
    Format settings, Reference  : 4 frames
    Codec ID                    : V_MPEG4/ISO/AVC
    Duration                    : 1 h 35 min
    Bit rate mode               : Variable
    Bit rate                    : 30.0 Mb/s
    Maximum bit rate            : 35.0 Mb/s
    Width                       : 1 920 pixels
    Height                      : 1 080 pixels
    Display aspect ratio        : 16:9
    Frame rate mode             : Constant
    Frame rate                  : 23.976 (24000/1001) FPS
    Color space                 : YUV
    Chroma subsampling          : 4:2:0
    Bit depth                   : 8 bits
    Scan type                   : Progressive
    Bits/(Pixel*Frame)          : 0.603
    Stream size                 : 20.0 GiB (90%)
    Language                    : Spanish
    Default                     : Yes
    Forced                      : No
    Color range                 : Limited
    Color primaries             : BT.709
    Transfer characteristics    : BT.709
    Matrix coefficients         : BT.709

    Audio #1
    ID                          : 2
    Format                      : DTS
    Format/Info                 : Digital Theater Systems
    Codec ID                    : A_DTS
    Duration                    : 1 h 35 min
    Bit rate mode               : Constant
    Bit rate                    : 384 kb/s
    Channel(s)                  : 2 channels
    Channel layout              : Lt Rt
    Sampling rate               : 48.0 kHz
    Frame rate                  : 93.750 FPS (512 SPF)
    Bit depth                   : 24 bits
    Compression mode            : Lossy
    Stream size                 : 262 MiB (1%)
    Language                    : Spanish
    Default                     : Yes
    Forced                      : No

    Audio #2
    ID                          : 3
    Format                      : DTS XLL
    Format/Info                 : Digital Theater Systems
    Commercial name             : DTS-HD Master Audio
    Codec ID                    : A_DTS
    Duration                    : 1 h 35 min
    Bit rate mode               : Variable
    Bit rate                    : 3 057 kb/s
    Channel(s)                  : 6 channels
    Channel layout              : C L R Ls Rs LFE
    Sampling rate               : 48.0 kHz
    Frame rate                  : 93.750 FPS (512 SPF)
    Bit depth                   : 24 bits
    Compression mode            : Lossless
    Stream size                 : 2.04 GiB (9%)
    Language                    : English
    Default                     : No
    Forced                      : No

    Text
    ID                          : 4
    Format                      : PGS
    Muxing mode                 : zlib
    Codec ID                    : S_HDMV/PGS
    Codec ID/Info               : Picture based subtitle format used on BDs/HD-DVDs
    Duration                    : 46 min 36 s
    Bit rate                    : 1 b/s
    Count of elements           : 14
    Stream size                 : 490 Bytes (0%)
    Language                    : Spanish
    Default                     : No
    Forced                      : No

    Menu
    00:00:00.000                : en:Chapter 01
    00:01:38.932                : en:Chapter 02
    00:04:00.323                : en:Chapter 03
    00:06:19.128                : en:Chapter 04
    00:12:19.780                : en:Chapter 05
    00:16:48.549                : en:Chapter 06
    00:24:08.238                : en:Chapter 07
    00:27:53.755                : en:Chapter 08
    00:31:33.057                : en:Chapter 09
    00:35:52.441                : en:Chapter 10
    00:42:46.689                : en:Chapter 11
    01:00:11.399                : en:Chapter 12
    01:03:41.359                : en:Chapter 13
    01:07:41.724                : en:Chapter 14
    01:11:02.383                : en:Chapter 15
    01:16:47.436                : en:Chapter 16
    01:27:13.770                : en:Chapter 17
    01:31:27.440                : en:Chapter 18

  • Peso:

Sinopsis

Una legión de jóvenes inexpertos están intentando apuntarse un tanto con el sexo opuesto. Jim es como cualquier otro chico de su edad, un joven sano y vigoroso que también resulta ser virgen, el principal motivo de su galopante desesperación. Desde que sus padres le sorprendieron viendo películas pornográficas, las cosas han ido a peor. En casa, su bienintencionado padre extiende un celo mortificador en todo lo referente a la educación sexual de su hijo; en el colegio, las cosas no van mucho mejor: sus experiencias con una belleza perteneciente a un programa de intercambio tienen toda la pinta de fracasar. Así que su último recurso se llama Michelle, una integrante de la banda de música que resulta ser todo un prodigio.

Ficha técnica

Video trailer de la película

Enlaces de descarga

Rip de Bluray

Descargar American Pie (1999) UNRATED REMUX 1080p Latino – CMHDD


Aportes de DPeliculasHDmega la pass es:dpeliculashdmega.org Aportes de CinemaniaHD la pass es:cinemaniahdd.com
Guardado en : Comedia , Romance

Películas relacionadas

  • Shotgun Wedding (2022) AMZN WEB-DL 1080p Latino

    Shotgun Wedding (2022) AMZN WEB-DL 1080p Latino

    2022
    Shotgun Wedding (2022) AMZN WEB-DL 1080p Latino

    1h 41m 2022

    Darcy y Tom reúnen a sus familias para la boda de destino definitiva, pero cuando toman como rehenes...

    Director: Jason Moore

    Género: Acción

    Actores: Steve Coulter

  • M3GAN (2023) AMZN WEB-DL 4K UHD HDR Latino

    M3GAN (2023) AMZN WEB-DL 4K UHD HDR Latino

    2022
    M3GAN (2023) AMZN WEB-DL 4K UHD HDR Latino

    1h 42m 2022

    Descargar M3GAN (2023) AMZN WEB-DL 4K UHD HDR Latino. Cuando Gemma se convierte en la cuidadora de su...

    Director: Stephen W. Moore

    Género: 4K HDR

    Actores: Violet McGraw

  • M3GAN (2022) MA WEB-DL 1080p Latino

    M3GAN (2022) MA WEB-DL 1080p Latino

    2022
    M3GAN (2022) MA WEB-DL 1080p Latino

    1h 42m 2022

    Descargar M3GAN (2022) MA WEB-DL 1080p Latino. Cuando Gemma se convierte en la cuidadora de su sobrina...

    Director: Stephen W. Moore

    Género: Ciencia ficción

    Actores: Violet McGraw

  • Noche sin paz (2022) PLACEBO Full HD 1080p Latino

    Noche sin paz (2022) PLACEBO Full HD 1080p Latino

    2022
    Noche sin paz (2022) PLACEBO Full HD 1080p Latino

    1h 41m 2022

    Descargar Noche sin paz (2022) PLACEBO Full HD 1080p Latino. Cuando un equipo de mercenarios irrumpe...

    Director: Tyshana Hobson

    Género: Acción

    Actores: Yoon Cha-Lee

  • Noche sin paz (2022) HD 1080p Latino

    Noche sin paz (2022) HD 1080p Latino

    2022
    Noche sin paz (2022) HD 1080p Latino

    1h 41m 2022

    Descargar Noche sin paz (2022) HD 1080p Latino. Cuando un equipo de mercenarios irrumpe en Nochebuena...

    Director: Tyshana Hobson

    Género: Acción

    Actores: Yoon Cha-Lee

descargar American Pie (1999) UNRATED REMUX 1080p Latino – CMHDD Full 1080p 1080p gratis, American Pie (1999) UNRATED REMUX 1080p Latino – CMHDD Full 1080p mega 1 link, American Pie (1999) UNRATED REMUX 1080p Latino – CMHDD Full 1080p pelicula completa, descargar American Pie (1999) UNRATED REMUX 1080p Latino – CMHDD Full 1080p gratis en mega.

American Pie (1999) UNRATED REMUX 1080p Latino – CMHDD pelicula full hd, American Pie (1999) UNRATED REMUX 1080p Latino – CMHDD mega latino, American Pie (1999) UNRATED REMUX 1080p Latino – CMHDD 4k latino, American Pie (1999) UNRATED REMUX 1080p Latino – CMHDD pelicula completa, American Pie (1999) UNRATED REMUX 1080p Latino – CMHDD descargar gratis, descargar American Pie (1999) UNRATED REMUX 1080p Latino – CMHDD pelicula latino, American Pie (1999) UNRATED REMUX 1080p Latino – CMHDD 1 link mega, American Pie (1999) UNRATED REMUX 1080p Latino – CMHDD 1 link google drive, American Pie (1999) UNRATED REMUX 1080p Latino – CMHDD hd 1080p latino.
Comentarios 0