×

¿Problemas para descargar con Mozilla, EDGE? Deshabilita la opción "Abrir vinculos en una pestaña nueva" tal como lo muestra ésta imagen.

Escándalo Americano (2013) 1080p Latino

108 vistas

Información de Escándalo Americano (2013) 1080p Latino

Datos de la película

  • Calidad: 1080p
  • Audio: Español Latino AC3 5.1 BLURAY - Ingles AC3 5.1 BLURAY
  • Subtitulos: Español Latino SRT - Ingles SRT
  • Resolución: 1920x800p
  • Formato: MKV
  • Codec: H.264
  • Encoder: CinefiloCool
  • Mediainfo: Clic para Mostrar Datos Ver
  • Escandalo Americano (2013) 1080p latino-CMHDD.mkv
    Format                      : Matroska
    Format version              : Version 4
    File size                   : 5.12 GiB
    Duration                    : 2 h 18 min
    Overall bit rate            : 5 311 kb/s
    Movie name                  : American Hustle (2013) CinemaniaHDD.Net
    Encoded date                : UTC 2021-11-19 02:41:35
    Writing application         : mkvmerge v56.1.0 ('My Friend') 64-bit
    Writing library             : libebml v1.4.2 + libmatroska v1.6.4
    Attachments                 : CINEMANIAHD.png

    Video
    ID                          : 1
    Format                      : AVC
    Format/Info                 : Advanced Video Codec
    Format profile              : High@L4.1
    Format settings             : CABAC / 5 Ref Frames
    Format settings, CABAC      : Yes
    Format settings, Reference  : 5 frames
    Codec ID                    : V_MPEG4/ISO/AVC
    Duration                    : 2 h 18 min
    Bit rate                    : 4 221 kb/s
    Width                       : 1 920 pixels
    Height                      : 800 pixels
    Display aspect ratio        : 2.40:1
    Frame rate mode             : Constant
    Frame rate                  : 23.976 (24000/1001) FPS
    Color space                 : YUV
    Chroma subsampling          : 4:2:0
    Bit depth                   : 8 bits
    Scan type                   : Progressive
    Bits/(Pixel*Frame)          : 0.115
    Stream size                 : 4.07 GiB (79%)
    Title                       : HD1080p [CinemaniaHDD]
    Writing library             : x264 core 163 r3059 b684ebe0
    Encoding settings           : cabac=1 / ref=5 / deblock=1:-1:-1 / analyse=0x3:0x133 / me=umh / subme=9 / psy=1 / psy_rd=1.00:0.15 / mixed_ref=1 / me_range=16 / chroma_me=1 / trellis=2 / 8x8dct=1 / cqm=0 / deadzone=21,11 / fast_pskip=1 / chroma_qp_offset=-3 / threads=24 / lookahead_threads=2 / sliced_threads=0 / nr=0 / decimate=1 / interlaced=0 / bluray_compat=0 / constrained_intra=0 / bframes=3 / b_pyramid=2 / b_adapt=2 / b_bias=0 / direct=3 / weightb=1 / open_gop=0 / weightp=2 / keyint=240 / keyint_min=24 / scenecut=40 / intra_refresh=0 / rc_lookahead=60 / rc=crf / mbtree=1 / crf=22.0 / qcomp=0.60 / qpmin=0 / qpmax=69 / qpstep=4 / vbv_maxrate=62500 / vbv_bufsize=78125 / crf_max=0.0 / nal_hrd=none / filler=0 / ip_ratio=1.40 / aq=1:1.00
    Default                     : Yes
    Forced                      : Yes
    Color range                 : Limited
    Color primaries             : BT.709
    Transfer characteristics    : BT.709
    Matrix coefficients         : BT.709

    Audio #1
    ID                          : 2
    ID in the original source m : 4357 (0x1105)
    Format                      : AC-3
    Format/Info                 : Audio Coding 3
    Commercial name             : Dolby Digital
    Codec ID                    : A_AC3
    Duration                    : 2 h 18 min
    Bit rate mode               : Constant
    Bit rate                    : 640 kb/s
    Channel(s)                  : 6 channels
    Channel layout              : L R C LFE Ls Rs
    Sampling rate               : 48.0 kHz
    Frame rate                  : 31.250 FPS (1536 SPF)
    Compression mode            : Lossy
    Delay relative to video     : -5 ms
    Stream size                 : 632 MiB (12%)
    Title                       : Español Latino [CinemaniaHDD]
    Language                    : Spanish
    Service kind                : Complete Main
    Default                     : Yes
    Forced                      : Yes
    Original source medium      : Blu-ray

    Audio #2
    ID                          : 3
    Format                      : AC-3
    Format/Info                 : Audio Coding 3
    Commercial name             : Dolby Digital
    Codec ID                    : A_AC3
    Duration                    : 2 h 18 min
    Bit rate mode               : Constant
    Bit rate                    : 448 kb/s
    Channel(s)                  : 6 channels
    Channel layout              : L R C LFE Ls Rs
    Sampling rate               : 48.0 kHz
    Frame rate                  : 31.250 FPS (1536 SPF)
    Compression mode            : Lossy
    Delay relative to video     : -5 ms
    Stream size                 : 442 MiB (8%)
    Title                       : Ingles [CinemaniaHDD]
    Language                    : English
    Service kind                : Complete Main
    Default                     : No
    Forced                      : No

    Text #1
    ID                          : 4
    Format                      : UTF-8
    Codec ID                    : S_TEXT/UTF8
    Codec ID/Info               : UTF-8 Plain Text
    Duration                    : 2 h 11 min
    Bit rate                    : 0 b/s
    Count of elements           : 17
    Stream size                 : 416 Bytes (0%)
    Title                       : Forzados-SRT [CinemaniaHDD]
    Language                    : Spanish
    Default                     : Yes
    Forced                      : Yes

    Text #2
    ID                          : 5
    Format                      : UTF-8
    Codec ID                    : S_TEXT/UTF8
    Codec ID/Info               : UTF-8 Plain Text
    Duration                    : 2 h 11 min
    Bit rate                    : 79 b/s
    Count of elements           : 1956
    Stream size                 : 76.1 KiB (0%)
    Title                       : Español-SRT [CinemaniaHDD]
    Language                    : Spanish
    Default                     : No
    Forced                      : No

    Text #3
    ID                          : 6
    Format                      : UTF-8
    Codec ID                    : S_TEXT/UTF8
    Codec ID/Info               : UTF-8 Plain Text
    Duration                    : 2 h 13 min
    Bit rate                    : 107 b/s
    Count of elements           : 2941
    Stream size                 : 106 KiB (0%)
    Title                       : Ingles-SRT [CinemaniaHDD]
    Language                    : English
    Default                     : No
    Forced                      : No

    Menu
    00:00:00.000                : Chapter 01
    00:07:12.640                : Chapter 02
    00:14:11.141                : Chapter 03
    00:24:08.822                : Chapter 04
    00:31:28.970                : Chapter 05
    00:39:16.103                : Chapter 06
    00:48:40.334                : Chapter 07
    00:57:01.000                : Chapter 08
    01:06:18.599                : Chapter 09
    01:15:30.943                : Chapter 10
    01:24:12.756                : Chapter 11
    01:33:09.792                : Chapter 12
    01:41:35.089                : Chapter 13
    01:51:45.824                : Chapter 14
    02:00:25.301                : Chapter 15
    02:09:50.991                : Chapter 16

  • Peso: 5.12 GIB

Sinopsis

Descargar Escándalo Americano (2013) 1080p Latino. La película cuenta la historia de Irving Rosenfeld, un hombre muy inteligente que, junto con su atractiva compañera Sydney Prosser se ve obligado por un agente del FBI a trabajar en un complicado y peligroso caso. El agente les empuja a un mundo lleno de mafiosos situado en Nueva Jersey donde deben cumplir una misión.

Ficha técnica

Video trailer de la película

Enlaces de descarga

Rip de Bluray

Descargar Escándalo Americano (2013) 1080p Latino




Aportes de DPeliculasHDmega la pass es:dpeliculashdmega.org Aportes de CinemaniaHD la pass es:cinemaniahdd.com
Guardado en : Crimen , Drama , HD 1080p

Películas relacionadas

descargar Escándalo Americano (2013) 1080p Latino 1080p 1080p gratis, Escándalo Americano (2013) 1080p Latino 1080p mega 1 link, Escándalo Americano (2013) 1080p Latino 1080p pelicula completa, descargar Escándalo Americano (2013) 1080p Latino 1080p gratis en mega.

Escándalo Americano (2013) 1080p Latino pelicula full hd, Escándalo Americano (2013) 1080p Latino mega latino, Escándalo Americano (2013) 1080p Latino 4k latino, Escándalo Americano (2013) 1080p Latino pelicula completa, Escándalo Americano (2013) 1080p Latino descargar gratis, descargar Escándalo Americano (2013) 1080p Latino pelicula latino, Escándalo Americano (2013) 1080p Latino 1 link mega, Escándalo Americano (2013) 1080p Latino 1 link google drive, Escándalo Americano (2013) 1080p Latino hd 1080p latino.