×

¿Problemas para descargar con Mozilla, EDGE? Deshabilita la opción "Abrir vinculos en una pestaña nueva" tal como lo muestra ésta imagen.

American Horror Story Murder House (2011) Preimera Temporada REMUX 1080p Latino – CMHDD

312 vistas

Información de American Horror Story Murder House (2011) Preimera Temporada REMUX 1080p Latino – CMHDD

Datos de la película

  • Calidad: Full 1080p
  • Audio: Español Latino AC3 2.0 DVD - Ingles DTS 5.1 BLURAY
  • Subtitulos: Español Latino SRT
  • Resolución: 1920x1080p
  • Formato: MKV
  • Codec: H.264
  • Encoder: Dracarys
  • Mediainfo: Clic para Mostrar Datos Ver
  • Format                      : Matroska
    Format version              : Version 4
    File size                   : 9.14 GiB
    Duration                    : 51 min 39 s
    Overall bit rate mode       : Variable
    Overall bit rate            : 25.3 Mb/s
    Movie name                  : American Horror Story Murder House (2011) [S01E01] REMUX 1080p Latino - CMHDD
    Encoded date                : UTC 2020-07-26 06:31:12
    Writing application         : mkvmerge v46.0.0 ('No Deeper Escape') 64-bit
    Writing library             : libebml v1.3.10 + libmatroska v1.5.2

    Video
    ID                          : 1
    Format                      : AVC
    Format/Info                 : Advanced Video Codec
    Format profile              : High@L4.1
    Format settings             : CABAC / 4 Ref Frames
    Format settings, CABAC      : Yes
    Format settings, Reference  : 4 frames
    Codec ID                    : V_MPEG4/ISO/AVC
    Duration                    : 51 min 39 s
    Bit rate mode               : Variable
    Bit rate                    : 21.9 Mb/s
    Maximum bit rate            : 37.0 Mb/s
    Width                       : 1 920 pixels
    Height                      : 1 080 pixels
    Display aspect ratio        : 16:9
    Frame rate mode             : Constant
    Frame rate                  : 23.976 (24000/1001) FPS
    Color space                 : YUV
    Chroma subsampling          : 4:2:0
    Bit depth                   : 8 bits
    Scan type                   : Progressive
    Bits/(Pixel*Frame)          : 0.440
    Stream size                 : 7.89 GiB (86%)
    Language                    : English
    Default                     : Yes
    Forced                      : No

    Audio #1
    ID                          : 2
    Format                      : AC-3
    Format/Info                 : Audio Coding 3
    Commercial name             : Dolby Digital
    Codec ID                    : A_AC3
    Duration                    : 51 min 33 s
    Bit rate mode               : Constant
    Bit rate                    : 256 kb/s
    Channel(s)                  : 2 channels
    Channel layout              : L R
    Sampling rate               : 48.0 kHz
    Frame rate                  : 31.250 FPS (1536 SPF)
    Compression mode            : Lossy
    Stream size                 : 94.4 MiB (1%)
    Language                    : Spanish
    Service kind                : Complete Main
    Default                     : Yes
    Forced                      : No

    Audio #2
    ID                          : 3
    Format                      : DTS XLL
    Format/Info                 : Digital Theater Systems
    Commercial name             : DTS-HD Master Audio
    Codec ID                    : A_DTS
    Duration                    : 51 min 39 s
    Bit rate mode               : Variable
    Bit rate                    : 3 212 kb/s
    Channel(s)                  : 6 channels
    Channel layout              : C L R Ls Rs LFE
    Sampling rate               : 48.0 kHz
    Frame rate                  : 93.750 FPS (512 SPF)
    Bit depth                   : 24 bits
    Compression mode            : Lossless
    Stream size                 : 1.16 GiB (13%)
    Language                    : English
    Default                     : No
    Forced                      : No

    Text
    ID                          : 4
    Format                      : UTF-8
    Codec ID                    : S_TEXT/UTF8
    Codec ID/Info               : UTF-8 Plain Text
    Duration                    : 50 min 2 s
    Bit rate                    : 68 b/s
    Count of elements           : 655
    Stream size                 : 25.3 KiB (0%)
    Language                    : Spanish
    Default                     : No
    Forced                      : No

    Menu
    00:00:00.000                : en:Chapter 1
    00:08:15.370                : en:Chapter 2
    00:13:34.981                : en:Chapter 3
    00:18:08.087                : en:Chapter 4
    00:21:39.590                : en:Chapter 5
    00:25:44.293                : en:Chapter 6
    00:27:23.392                : en:Chapter 7
    00:29:10.916                : en:Chapter 8
    00:33:43.855                : en:Chapter 9
    00:38:41.444                : en:Chapter 10
    00:45:15.421                : en:Chapter 11
    00:50:00.748                : en:Chapter 12

  • Peso: 102 GiB Tortal

Sinopsis

American Horror Story es una serie antológica de televisión, creada y producida por Ryan Murphy y Brad Falchuk. Cada una de sus temporadas narra una trama independiente, ambientada en lugares diferentes y cerrando siempre la historia; donde muchos actores repiten, pero siempre interpretando personajes distintos

Ficha técnica

Video trailer de la película

Enlaces de descarga

Rip de Bluray

Descargar American Horror Story Murder House (2011) Preimera Temporada REMUX 1080p Latino – CMHDD




Aportes de DPeliculasHDmega la pass es:dpeliculashdmega.org Aportes de CinemaniaHD la pass es:cinemaniahdd.com
Guardado en : Drama , Misterio , Sci-Fi & Fantasy

Películas relacionadas

descargar American Horror Story Murder House (2011) Preimera Temporada REMUX 1080p Latino – CMHDD Full 1080p 1080p gratis, American Horror Story Murder House (2011) Preimera Temporada REMUX 1080p Latino – CMHDD Full 1080p mega 1 link, American Horror Story Murder House (2011) Preimera Temporada REMUX 1080p Latino – CMHDD Full 1080p pelicula completa, descargar American Horror Story Murder House (2011) Preimera Temporada REMUX 1080p Latino – CMHDD Full 1080p gratis en mega.

American Horror Story Murder House (2011) Preimera Temporada REMUX 1080p Latino – CMHDD pelicula full hd, American Horror Story Murder House (2011) Preimera Temporada REMUX 1080p Latino – CMHDD mega latino, American Horror Story Murder House (2011) Preimera Temporada REMUX 1080p Latino – CMHDD 4k latino, American Horror Story Murder House (2011) Preimera Temporada REMUX 1080p Latino – CMHDD pelicula completa, American Horror Story Murder House (2011) Preimera Temporada REMUX 1080p Latino – CMHDD descargar gratis, descargar American Horror Story Murder House (2011) Preimera Temporada REMUX 1080p Latino – CMHDD pelicula latino, American Horror Story Murder House (2011) Preimera Temporada REMUX 1080p Latino – CMHDD 1 link mega, American Horror Story Murder House (2011) Preimera Temporada REMUX 1080p Latino – CMHDD 1 link google drive, American Horror Story Murder House (2011) Preimera Temporada REMUX 1080p Latino – CMHDD hd 1080p latino.
Comentarios 0