×

¿Problemas para descargar con Mozilla, EDGE? Deshabilita la opción "Abrir vinculos en una pestaña nueva" tal como lo muestra ésta imagen.

American Horror Story – Asylum (2012) REMUX 1080p Latino

357 vistas

Información de American Horror Story – Asylum (2012) REMUX 1080p Latino

Datos de la película

  • Calidad: Full 1080p
  • Audio: Español Latino AC3 5.1 Netflix - Ingles DTS 5.1 BLURAY
  • Subtitulos: Español Latino SRT
  • Resolución: 1920x1080p
  • Formato: MKV
  • Codec: H.264
  • Encoder: Dracarys
  • Mediainfo: Clic para Mostrar Datos Ver
  • Format                      : Matroska
    Format version              : Version 4
    File size                   : 8.35 GiB
    Duration                    : 44 min 18 s
    Overall bit rate mode       : Variable
    Overall bit rate            : 27.0 Mb/s
    Movie name                  : American Horror Story- Asylum (2012) [S02E02] REMUX 1080p Latino - CMHDD
    Encoded date                : UTC 2020-07-28 02:22:22
    Writing application         : mkvmerge v46.0.0 ('No Deeper Escape') 64-bit
    Writing library             : libebml v1.3.10 + libmatroska v1.5.2

    Video
    ID                          : 1
    Format                      : AVC
    Format/Info                 : Advanced Video Codec
    Format profile              : High@L4.1
    Format settings             : CABAC / 4 Ref Frames
    Format settings, CABAC      : Yes
    Format settings, Reference  : 4 frames
    Codec ID                    : V_MPEG4/ISO/AVC
    Duration                    : 43 min 54 s
    Bit rate mode               : Variable
    Bit rate                    : 23.3 Mb/s
    Maximum bit rate            : 37.0 Mb/s
    Width                       : 1 920 pixels
    Height                      : 1 080 pixels
    Display aspect ratio        : 16:9
    Frame rate mode             : Constant
    Frame rate                  : 23.976 (24000/1001) FPS
    Color space                 : YUV
    Chroma subsampling          : 4:2:0
    Bit depth                   : 8 bits
    Scan type                   : Progressive
    Bits/(Pixel*Frame)          : 0.469
    Stream size                 : 7.15 GiB (86%)
    Language                    : English
    Default                     : Yes
    Forced                      : No

    Audio #1
    ID                          : 2
    Format                      : AC-3
    Format/Info                 : Audio Coding 3
    Commercial name             : Dolby Digital
    Codec ID                    : A_AC3
    Duration                    : 44 min 18 s
    Bit rate mode               : Constant
    Bit rate                    : 448 kb/s
    Channel(s)                  : 6 channels
    Channel layout              : L R C LFE Ls Rs
    Sampling rate               : 48.0 kHz
    Frame rate                  : 31.250 FPS (1536 SPF)
    Compression mode            : Lossy
    Stream size                 : 142 MiB (2%)
    Language                    : Spanish
    Service kind                : Complete Main
    Default                     : Yes
    Forced                      : No

    Audio #2
    ID                          : 3
    Format                      : DTS XLL
    Format/Info                 : Digital Theater Systems
    Commercial name             : DTS-HD Master Audio
    Codec ID                    : A_DTS
    Duration                    : 43 min 54 s
    Bit rate mode               : Variable
    Bit rate                    : 3 455 kb/s
    Channel(s)                  : 6 channels
    Channel layout              : C L R Ls Rs LFE
    Sampling rate               : 48.0 kHz
    Frame rate                  : 93.750 FPS (512 SPF)
    Bit depth                   : 24 bits
    Compression mode            : Lossless
    Stream size                 : 1.06 GiB (13%)
    Language                    : English
    Default                     : No
    Forced                      : No

    Text #1
    ID                          : 4
    Format                      : UTF-8
    Codec ID                    : S_TEXT/UTF8
    Codec ID/Info               : UTF-8 Plain Text
    Duration                    : 43 min 24 s
    Bit rate                    : 58 b/s
    Count of elements           : 547
    Stream size                 : 18.7 KiB (0%)
    Language                    : Spanish
    Default                     : No
    Forced                      : No

    Text #2
    ID                          : 5
    Format                      : PGS
    Muxing mode                 : zlib
    Codec ID                    : S_HDMV/PGS
    Codec ID/Info               : Picture based subtitle format used on BDs/HD-DVDs
    Duration                    : 43 min 24 s
    Bit rate                    : 43.9 kb/s
    Count of elements           : 1094
    Stream size                 : 13.6 MiB (0%)
    Language                    : Spanish
    Default                     : No
    Forced                      : No

    Menu
    00:00:00.000                : en:Chapter 1
    00:04:43.575                : en:Chapter 2
    00:08:33.680                : en:Chapter 3
    00:11:56.925                : en:Chapter 4
    00:14:06.387                : en:Chapter 5
    00:17:05.983                : en:Chapter 6
    00:21:23.616                : en:Chapter 7
    00:25:02.960                : en:Chapter 8
    00:28:19.406                : en:Chapter 9
    00:32:01.545                : en:Chapter 10
    00:35:17.532                : en:Chapter 11
    00:39:50.597                : en:Chapter 12

  • Peso: 116 GiB Total

Sinopsis

En 1964, en la institución mental Briarcliff Manor en Massachusetts, la Hermana Jude Martin (Jessica Lange) y la Hermana Mary Eunice McKee (Lily Rabe) tratan de mantener la institución fundada por el Monseñor Timothy Howard (Joseph Fiennes) para el tratamiento de pacientes con problemas mentales y criminales dementes. El psiquiatra Oliver Thredson (Zachary Quinto), y el científico Arthur Arden (James Cromwell), tratan a pacientes dentro de la institución, incluyendo a la periodista lesbiana Lana Winters (Sarah Paulson), el acusado de asesinato Kit Walker (Evan Peters), y la presunta asesina Grace Bertrand (Lizzie Brocheré).

Ficha técnica

Video trailer de la película

Enlaces de descarga

Rip de Bluray

Descargar American Horror Story – Asylum (2012) REMUX 1080p Latino




Aportes de DPeliculasHDmega la pass es:dpeliculashdmega.org Aportes de CinemaniaHD la pass es:cinemaniahdd.com
Guardado en : Drama , Misterio , Sci-Fi & Fantasy

Películas relacionadas

  • Stromboli (2022) NF WEB-DL 1080p Latino

    Stromboli (2022) NF WEB-DL 1080p Latino

    2022
    Stromboli (2022) NF WEB-DL 1080p Latino

    1h 26m 2022

    Descargar Stromboli (2022) NF WEB-DL 1080p Latino. Sara, una mujer que se ha divorciado recientemente,...

    Director: Michiel van Erp

    Género: Drama

    Actores: Tim McInnerny

  • Infiesto (2023) NF WEB-DL 1080p Castellano

    Infiesto (2023) NF WEB-DL 1080p Castellano

    2023
    Infiesto (2023) NF WEB-DL 1080p Castellano

    1h 36m 2023

    Descargar Infiesto (2023) NF WEB-DL 1080p Castellano. Mientras el coronavirus trastoca sus vidas, dos...

    Director: Patxi Amezcua

    Género: Crimen

    Actores: Luis Zahera

  • Espiritu Libre (2023) NF WEB-DL 1080p Latino

    Espiritu Libre (2023) NF WEB-DL 1080p Latino

    2023
    Espiritu Libre (2023) NF WEB-DL 1080p Latino

    1h 49m 2023

    Descargar Espiritu Libre (2023) NF WEB-DL 1080p Latino. La película se basa en la increíble historia...

    Director: Sarah Spillane

    Género: Aventura

    Actores: Vivien Turner

descargar American Horror Story – Asylum (2012) REMUX 1080p Latino Full 1080p 1080p gratis, American Horror Story – Asylum (2012) REMUX 1080p Latino Full 1080p mega 1 link, American Horror Story – Asylum (2012) REMUX 1080p Latino Full 1080p pelicula completa, descargar American Horror Story – Asylum (2012) REMUX 1080p Latino Full 1080p gratis en mega.

American Horror Story – Asylum (2012) REMUX 1080p Latino pelicula full hd, American Horror Story – Asylum (2012) REMUX 1080p Latino mega latino, American Horror Story – Asylum (2012) REMUX 1080p Latino 4k latino, American Horror Story – Asylum (2012) REMUX 1080p Latino pelicula completa, American Horror Story – Asylum (2012) REMUX 1080p Latino descargar gratis, descargar American Horror Story – Asylum (2012) REMUX 1080p Latino pelicula latino, American Horror Story – Asylum (2012) REMUX 1080p Latino 1 link mega, American Horror Story – Asylum (2012) REMUX 1080p Latino 1 link google drive, American Horror Story – Asylum (2012) REMUX 1080p Latino hd 1080p latino.
Comentarios 0