American Gods (2021) Temporada 3 AMZN WEB-DL 1080p Latino

13 vistas
1 estrella2 estrellas3 estrellas4 estrellas5 estrellas (2 votos, promedio: 5,00 de 5)
Cargando...

Información de American Gods (2021) Temporada 3 AMZN WEB-DL 1080p Latino

Datos de la película

  • Calidad: WEBDL
  • Audio: Español Latino E-AC3 5.1 AMAZON - Ingles E-AC3 5.1 AMAZON
  • Subtitulos: Español Latino SRT- FORZADOS SRT
  • Resolución: 1920x1080
  • Formato: MKV
  • Codec: H.264
  • Encoder: cinemaniahdd
  • Mediainfo: Clic para Mostrar Datos Ver
  • American Gods T03E01 AMZN WEB-DL 1080p Latino [CNMNHDD].mkv
    Format                      : Matroska
    Format version              : Version 4
    File size                   : 4.02 GiB
    Duration                    : 55 min 47 s
    Overall bit rate            : 10.3 Mb/s
    Movie name                  : American Gods T03E01 - CinemaniaHDD.Net
    Encoded date                : UTC 2021-01-12 01:00:44
    Writing application         : mkvmerge v51.0.0 ('I Wish') 64-bit
    Writing library             : libebml v1.4.0 + libmatroska v1.6.2

    Video
    ID                          : 1
    Format                      : AVC
    Format/Info                 : Advanced Video Codec
    Format profile              : High@L4
    Format settings             : CABAC / 4 Ref Frames
    Format settings, CABAC      : Yes
    Format settings, Reference  : 4 frames
    Codec ID                    : V_MPEG4/ISO/AVC
    Duration                    : 55 min 47 s
    Bit rate mode               : Constant
    Bit rate                    : 9 046 kb/s
    Nominal bit rate            : 10 000 kb/s
    Width                       : 1 920 pixels
    Height                      : 1 080 pixels
    Display aspect ratio        : 16:9
    Frame rate mode             : Constant
    Frame rate                  : 23.976 (24000/1001) FPS
    Color space                 : YUV
    Chroma subsampling          : 4:2:0
    Bit depth                   : 8 bits
    Scan type                   : Progressive
    Bits/(Pixel*Frame)          : 0.182
    Stream size                 : 3.53 GiB (88%)
    Title                       : CinemaniaHDD
    Default                     : Yes
    Forced                      : No
    Color range                 : Limited
    Color primaries             : BT.709
    Transfer characteristics    : BT.709
    Matrix coefficients         : BT.709

    Audio #1
    ID                          : 2
    Format                      : E-AC-3
    Format/Info                 : Enhanced AC-3
    Commercial name             : Dolby Digital Plus
    Codec ID                    : A_EAC3
    Duration                    : 55 min 47 s
    Bit rate mode               : Constant
    Bit rate                    : 640 kb/s
    Channel(s)                  : 6 channels
    Channel layout              : L R C LFE Ls Rs
    Sampling rate               : 48.0 kHz
    Frame rate                  : 31.250 FPS (1536 SPF)
    Compression mode            : Lossy
    Stream size                 : 255 MiB (6%)
    Title                       : Español latino [CinemaniaHDD]
    Language                    : Spanish
    Service kind                : Complete Main
    Default                     : Yes
    Forced                      : No

    Audio #2
    ID                          : 3
    Format                      : E-AC-3
    Format/Info                 : Enhanced AC-3
    Commercial name             : Dolby Digital Plus
    Codec ID                    : A_EAC3
    Duration                    : 55 min 47 s
    Bit rate mode               : Constant
    Bit rate                    : 640 kb/s
    Channel(s)                  : 6 channels
    Channel layout              : L R C LFE Ls Rs
    Sampling rate               : 48.0 kHz
    Frame rate                  : 31.250 FPS (1536 SPF)
    Compression mode            : Lossy
    Stream size                 : 255 MiB (6%)
    Title                       : Inglés [CinemaniaHDD]
    Language                    : English
    Service kind                : Complete Main
    Default                     : No
    Forced                      : No

    Text #1
    ID                          : 4
    Format                      : UTF-8
    Codec ID                    : S_TEXT/UTF8
    Codec ID/Info               : UTF-8 Plain Text
    Duration                    : 48 min 28 s
    Bit rate                    : 1 b/s
    Count of elements           : 16
    Stream size                 : 381 Bytes (0%)
    Title                       : Forzados [CinemaniaHDD]
    Language                    : Spanish
    Default                     : Yes
    Forced                      : Yes

    Text #2
    ID                          : 5
    Format                      : UTF-8
    Codec ID                    : S_TEXT/UTF8
    Codec ID/Info               : UTF-8 Plain Text
    Duration                    : 53 min 14 s
    Bit rate                    : 52 b/s
    Count of elements           : 629
    Stream size                 : 20.5 KiB (0%)
    Title                       : Español latino [CinemaniaHDD]
    Language                    : Spanish
    Default                     : No
    Forced                      : No

    Text #3
    ID                          : 6
    Format                      : UTF-8
    Codec ID                    : S_TEXT/UTF8
    Codec ID/Info               : UTF-8 Plain Text
    Duration                    : 55 min 22 s
    Bit rate                    : 67 b/s
    Count of elements           : 954
    Stream size                 : 27.5 KiB (0%)
    Title                       : Inglés [CC] [CinemaniaHDD]
    Language                    : English
    Default                     : No
    Forced                      : No

    Menu
    00:00:00.000                : en:Amazon Original
    00:00:06.000                : en:Previously On
    00:03:12.000                : en:Death metal tributes
    00:05:59.000                : en:Opening Credits
    00:07:31.000                : en:Factory work
    00:09:48.000                : en:Laura's desperate
    00:11:38.000                : en:Running out of luck
    00:14:59.000                : en:A disturbing encounter
    00:18:32.000                : en:Control the narrative
    00:20:25.000                : en:Twenty questions
    00:24:45.000                : en:Having technical difficulties
    00:29:20.000                : en:Road blockade
    00:33:42.000                : en:Coming to collect
    00:38:08.000                : en:Finding Whiskey Jack
    00:41:49.000                : en:Shadow wants to make his own decisions
    00:45:12.000                : en:Bus depot
    00:46:37.000                : en:Arriving in Lakeside
    00:48:35.000                : en:The cold North
    00:50:53.000                : en:A ride home
    00:52:50.000                : en:A broken entrance
    00:54:35.000                : en:End Credits

     

  • Peso: 4.02 GiB C/U --- PRIMER CAPITULO AGREGADO

Sinopsis

Shadow intenta escapar y afirmarse como un hombre independiente, echando raíces en la idílica ciudad nevada de Lakeside, Wisconsin. Ahí descubrirá un oscuro secreto mientras explora cuestiones de su propia divinidad.B08S75

Ficha técnica

Video trailer de la película

Enlaces de descarga

Rip de Bluray

Descargar American Gods (2021) Temporada 3 AMZN WEB-DL 1080p Latino




Aportes de DPeliculasHDmega la pass es:dpeliculashdmega.org Aportes de CinemaniaHD la pass es:cinemaniahdd.com
Guardado en : Drama , Misterio , Sci-Fi & Fantasy , Series

Películas relacionadas

  • Come Play (2020) HD 1080p Latino

    Come Play (2020) HD 1080p Latino

    2020
    Come Play (2020) HD 1080p Latino

    0.0 1h 36m 2020

    Descargar Come Play (2020) HD 1080p Latino. Un niño problemático y su familia se convierten en el objetivo...

    Director: Jacob Chase

    Género: Terror

    Actores: Winslow Fegley

  • Come Play (2020) REMUX 1080p Latino

    Come Play (2020) REMUX 1080p Latino

    2020
    Come Play (2020) REMUX 1080p Latino

    0.0 1h 36m 2020

    Descargar Come Play (2020) REMUX 1080p Latino. Un niño problemático y su familia se convierten en el...

    Director: Jacob Chase

    Género: Terror

    Actores: Winslow Fegley

  • Beforeigners (2020) Temporada 1 HBOGO WEB-DL 1080p

    Beforeigners (2020) Temporada 1 HBOGO WEB-DL 1080p

    2019
    Beforeigners (2020) Temporada 1 HBOGO WEB-DL 1080p

    5.0 0h 50m 2019

    Gente de la Edad de Piedra, la Era Vikinga y finales del siglo XIX comienzan a aparecer inexplicablemente...

    Director: Eilif Skodvin

    Género: Drama

    Actores: Stig R. Amdam

Comentarios 0