×

¿Problemas para descargar con Mozilla, EDGE? Deshabilita la opción "Abrir vinculos en una pestaña nueva" tal como lo muestra ésta imagen.

American Gangster (2007) [UNRATED] REMUX 4K HDR Latino – CMHDD

400 vistas

Información de American Gangster (2007) [UNRATED] REMUX 4K HDR Latino – CMHDD

Datos de la película

  • Calidad: 4K HDR
  • Audio: Español Latino DTS 5.1 BLURAY - Ingles DTS-HD Master 7.1 BLURAY
  • Subtitulos: Español Latino PGS
  • Resolución: 3840x2160p
  • Formato: MKV
  • Codec: H.264
  • Encoder: Dracarys
  • Mediainfo: Clic para Mostrar Datos Ver
  • Format                      : Matroska
    Format version              : Version 4
    File size                   : 70.2 GiB
    Duration                    : 2 h 55 min
    Overall bit rate mode       : Variable
    Overall bit rate            : 57.2 Mb/s
    Movie name                  : American Gangster (2007) [UNRATED] REMUX 4K HDR Latino – CMHDD
    Encoded date                : UTC 2024-02-14 02:08:04
    Writing application         : mkvmerge v47.0.0 ('Black Flag') 64-bit
    Writing library             : libebml v1.3.10 + libmatroska v1.5.2
    Cover                       : Yes
    Attachments                 : cover.jpg

    Video
    ID                          : 1
    Format                      : HEVC
    Format/Info                 : High Efficiency Video Coding
    Format profile              : Main 10@L5.1@High
    HDR format                  : SMPTE ST 2094 App 4, Version 1, HDR10+ Profile B compatible
    Codec ID                    : V_MPEGH/ISO/HEVC
    Duration                    : 2 h 55 min
    Bit rate                    : 50.5 Mb/s
    Width                       : 3 840 pixels
    Height                      : 2 160 pixels
    Display aspect ratio        : 16:9
    Frame rate mode             : Constant
    Frame rate                  : 23.976 (24000/1001) FPS
    Color space                 : YUV
    Chroma subsampling          : 4:2:0 (Type 2)
    Bit depth                   : 10 bits
    Bits/(Pixel*Frame)          : 0.254
    Stream size                 : 62.0 GiB (88%)
    Writing library             : ATEME Titan File 3.9.0 (4.9.0.0)        
    Default                     : Yes
    Forced                      : No
    Color range                 : Limited
    Color primaries             : BT.2020
    Transfer characteristics    : PQ
    Matrix coefficients         : BT.2020 non-constant
    Mastering display color pri : Display P3
    Mastering display luminance : min: 0.0050 cd/m2, max: 1000 cd/m2
    Maximum Content Light Level : 1179 cd/m2
    Maximum Frame-Average Light : 501 cd/m2

    Audio #1
    ID                          : 2
    Format                      : DTS XLL X
    Format/Info                 : Digital Theater Systems
    Commercial name             : DTS-HD Master Audio
    Codec ID                    : A_DTS
    Duration                    : 2 h 55 min
    Bit rate mode               : Variable
    Bit rate                    : 5 844 kb/s
    Channel(s)                  : 8 channels
    Channel(s)_Original         : Object Based
    ChannelLayout_Original      : Object Based
    Sampling rate               : 48.0 kHz
    Frame rate                  : 93.750 FPS (512 SPF)
    Bit depth                   : 24 bits
    Stream size                 : 7.18 GiB (10%)
    Language                    : English
    Default                     : No
    Forced                      : No

    Audio #2
    ID                          : 3
    Format                      : DTS
    Format/Info                 : Digital Theater Systems
    Codec ID                    : A_DTS
    Duration                    : 2 h 55 min
    Bit rate mode               : Constant
    Bit rate                    : 768 kb/s
    Channel(s)                  : 6 channels
    Channel layout              : C L R Ls Rs LFE
    Sampling rate               : 48.0 kHz
    Frame rate                  : 93.750 FPS (512 SPF)
    Bit depth                   : 24 bits
    Compression mode            : Lossy
    Stream size                 : 966 MiB (1%)
    Language                    : Spanish
    Default                     : Yes
    Forced                      : No

    Text #1
    ID                          : 4
    Format                      : PGS
    Muxing mode                 : zlib
    Codec ID                    : S_HDMV/PGS
    Codec ID/Info               : Picture based subtitle format used on BDs/HD-DVDs
    Duration                    : 2 h 36 min
    Bit rate                    : 25.3 kb/s
    Frame rate                  : 0.352 FPS
    Count of elements           : 3297
    Stream size                 : 28.3 MiB (0%)
    Language                    : Spanish
    Default                     : No
    Forced                      : No

    Text #2
    ID                          : 5
    Format                      : PGS
    Muxing mode                 : zlib
    Codec ID                    : S_HDMV/PGS
    Codec ID/Info               : Picture based subtitle format used on BDs/HD-DVDs
    Duration                    : 2 h 46 min
    Bit rate                    : 34.0 kb/s
    Frame rate                  : 0.456 FPS
    Count of elements           : 4562
    Stream size                 : 40.6 MiB (0%)
    Language                    : Spanish
    Default                     : No
    Forced                      : No

    Menu
    00:00:00.000                : en:Capítulo 01
    00:06:48.616                : en:Capítulo 02
    00:14:07.263                : en:Capítulo 03
    00:25:42.832                : en:Capítulo 04
    00:32:19.937                : en:Capítulo 05
    00:37:33.584                : en:Capítulo 06
    00:43:48.876                : en:Capítulo 07
    00:51:25.790                : en:Capítulo 08
    00:57:21.521                : en:Capítulo 09
    01:15:30.859                : en:Capítulo 10
    01:20:53.390                : en:Capítulo 11
    01:29:01.252                : en:Capítulo 12
    01:37:22.169                : en:Capítulo 13
    01:44:01.651                : en:Capítulo 14
    01:55:33.885                : en:Capítulo 15
    02:04:59.116                : en:Capítulo 16
    02:13:00.639                : en:Capítulo 17
    02:20:08.524                : en:Capítulo 18
    02:31:52.603                : en:Capítulo 19
    02:48:01.487                : en:Capítulo 20

     

  • Peso: 70.2 GiB

Sinopsis

Nueva York, 1968. Frank Lucas es el taciturno chófer de un importante mafioso negro de Harlem. Cuando su jefe muere inesperadamente, Frank aprovecha la oportunidad para construir su propio imperio. Gracias a su talento, se convierte no sólo en el principal narcotraficante de la ciudad, inundando las calles con productos de mejor calidad y precio, sino también en un hombre público muy respetado. Richie Roberts, un policía incorruptible marginado por su honradez que conoce bien las calles, se da cuenta de que una persona ajena a los clanes trepa por la escalera del poder. Tanto Roberts como Lucas comparten un estricto código ético que les aparta de los demás y los convierte en dos figuras solitarias en lados opuestos de la ley. Cuando se encuentren, el enfrentamiento entre ellos será inevitable.

Ficha técnica

Video trailer de la película

Enlaces de descarga

Rip de Bluray

Descargar American Gangster (2007) [UNRATED] REMUX 4K HDR Latino – CMHDD




Aportes de DPeliculasHDmega la pass es:dpeliculashdmega.org Aportes de CinemaniaHD la pass es:cinemaniahdd.com Aportes recientes:cinemaniahdd.net
Guardado en : Crimen , Drama

Películas relacionadas

  • Cómo robar un millón (1966) REMUX 1080p Latino-CMHDD

    Cómo robar un millón (1966) REMUX 1080p Latino-CMHDD

    1966
    Cómo robar un millón (1966) REMUX 1080p Latino-CMHDD

    2h 3m 1966

    Descargar Cómo robar un millón (1966) REMUX 1080p Latino-CMHDD. El padre de Nicole, un legendario coleccionista...

    Director: William Wyler

    Género: Comedia

    Actores: Roger Tréville

  • Milagros Inesperados (1999) 1080p Latino-CMHDD

    Milagros Inesperados (1999) 1080p Latino-CMHDD

    1999
    Milagros Inesperados (1999) 1080p Latino-CMHDD

    3h 9m 1999

    Descargar Milagros Inesperados (1999) 1080p Latino-CMHDD. En el sur de los Estados Unidos, en plena Depresión,...

    Director: Susan Malerstein

    Género: Crimen

    Actores: William Sadler

descargar American Gangster (2007) [UNRATED] REMUX 4K HDR Latino – CMHDD 4K HDR 1080p gratis, American Gangster (2007) [UNRATED] REMUX 4K HDR Latino – CMHDD 4K HDR mega 1 link, American Gangster (2007) [UNRATED] REMUX 4K HDR Latino – CMHDD 4K HDR pelicula completa, descargar American Gangster (2007) [UNRATED] REMUX 4K HDR Latino – CMHDD 4K HDR gratis en mega.

American Gangster (2007) [UNRATED] REMUX 4K HDR Latino – CMHDD pelicula full hd, American Gangster (2007) [UNRATED] REMUX 4K HDR Latino – CMHDD mega latino, American Gangster (2007) [UNRATED] REMUX 4K HDR Latino – CMHDD 4k latino, American Gangster (2007) [UNRATED] REMUX 4K HDR Latino – CMHDD pelicula completa, American Gangster (2007) [UNRATED] REMUX 4K HDR Latino – CMHDD descargar gratis, descargar American Gangster (2007) [UNRATED] REMUX 4K HDR Latino – CMHDD pelicula latino, American Gangster (2007) [UNRATED] REMUX 4K HDR Latino – CMHDD 1 link mega, American Gangster (2007) [UNRATED] REMUX 4K HDR Latino – CMHDD 1 link google drive, American Gangster (2007) [UNRATED] REMUX 4K HDR Latino – CMHDD hd 1080p latino.
Comentarios 0