×

¿Problemas para descargar con Mozilla, EDGE? Deshabilita la opción "Abrir vinculos en una pestaña nueva" tal como lo muestra ésta imagen.

American Beauty (1999) REMUX 1080p Latino – CMHDD

182 vistas

Información de American Beauty (1999) REMUX 1080p Latino – CMHDD

Datos de la película

  • Calidad: Full 1080p
  • Audio: Español Latino AC3 5.1 BLURAY - Ingles DTS 5.1 BLURAY
  • Subtitulos: Español Latino PGS
  • Resolución: 1920x1080p
  • Formato: MKV
  • Codec: H.264
  • Encoder: Dracarys
  • Mediainfo: Clic para Mostrar Datos Ver
  • Format                      : Matroska
    Format version              : Version 4
    File size                   : 26.4 GiB
    Duration                    : 2 h 1 min
    Overall bit rate mode       : Variable
    Overall bit rate            : 31.1 Mb/s
    Movie name                  : American Beauty (1999) REMUX 1080p Latino - CMHDD
    Encoded date                : UTC 2023-05-30 03:11:16
    Writing application         : mkvmerge v47.0.0 ('Black Flag') 64-bit
    Writing library             : libebml v1.3.10 + libmatroska v1.5.2
    Cover                       : Yes
    Attachments                 : cover.jpg

    Video
    ID                          : 1
    ID in the original source m : 4113 (0x1011)
    Format                      : AVC
    Format/Info                 : Advanced Video Codec
    Format profile              : High@L4.1
    Format settings             : CABAC / 4 Ref Frames
    Format settings, CABAC      : Yes
    Format settings, Reference  : 4 frames
    Codec ID                    : V_MPEG4/ISO/AVC
    Duration                    : 2 h 1 min
    Bit rate mode               : Variable
    Bit rate                    : 27.9 Mb/s
    Maximum bit rate            : 36.0 Mb/s
    Width                       : 1 920 pixels
    Height                      : 1 080 pixels
    Display aspect ratio        : 16:9
    Frame rate mode             : Constant
    Frame rate                  : 23.976 (24000/1001) FPS
    Color space                 : YUV
    Chroma subsampling          : 4:2:0
    Bit depth                   : 8 bits
    Scan type                   : Progressive
    Bits/(Pixel*Frame)          : 0.562
    Stream size                 : 23.7 GiB (90%)
    Default                     : Yes
    Forced                      : No
    Color range                 : Limited
    Color primaries             : BT.709
    Transfer characteristics    : BT.709
    Matrix coefficients         : BT.709
    Original source medium      : Blu-ray

    Audio #1
    ID                          : 2
    ID in the original source m : 4352 (0x1100)
    Format                      : DTS XLL
    Format/Info                 : Digital Theater Systems
    Commercial name             : DTS-HD Master Audio
    Codec ID                    : A_DTS
    Duration                    : 2 h 1 min
    Bit rate mode               : Variable
    Bit rate                    : 2 505 kb/s
    Channel(s)                  : 6 channels
    Channel layout              : C L R Ls Rs LFE
    Sampling rate               : 48.0 kHz
    Frame rate                  : 93.750 FPS (512 SPF)
    Bit depth                   : 24 bits
    Compression mode            : Lossless
    Stream size                 : 2.13 GiB (8%)
    Language                    : English
    Default                     : No
    Forced                      : No
    Original source medium      : Blu-ray

    Audio #2
    ID                          : 3
    ID in the original source m : 4354 (0x1102)
    Format                      : AC-3
    Format/Info                 : Audio Coding 3
    Commercial name             : Dolby Digital
    Codec ID                    : A_AC3
    Duration                    : 2 h 1 min
    Bit rate mode               : Constant
    Bit rate                    : 640 kb/s
    Channel(s)                  : 6 channels
    Channel layout              : L R C LFE Ls Rs
    Sampling rate               : 48.0 kHz
    Frame rate                  : 31.250 FPS (1536 SPF)
    Compression mode            : Lossy
    Stream size                 : 557 MiB (2%)
    Language                    : Spanish
    Service kind                : Complete Main
    Default                     : Yes
    Forced                      : No
    Original source medium      : Blu-ray

    Text
    ID                          : 4
    ID in the original source m : 4611 (0x1203)
    Format                      : PGS
    Muxing mode                 : zlib
    Codec ID                    : S_HDMV/PGS
    Codec ID/Info               : Picture based subtitle format used on BDs/HD-DVDs
    Duration                    : 1 h 55 min
    Bit rate                    : 36.7 kb/s
    Frame rate                  : 0.322 FPS
    Count of elements           : 2232
    Stream size                 : 30.3 MiB (0%)
    Language                    : Spanish
    Default                     : No
    Forced                      : No
    Original source medium      : Blu-ray

    Menu
    00:00:00.000                : en:Capítulo 01
    00:04:25.723                : en:Capítulo 02
    00:10:20.077                : en:Capítulo 03
    00:13:52.790                : en:Capítulo 04
    00:19:05.602                : en:Capítulo 05
    00:23:52.097                : en:Capítulo 06
    00:26:28.712                : en:Capítulo 07
    00:30:01.382                : en:Capítulo 08
    00:35:51.399                : en:Capítulo 09
    00:39:53.599                : en:Capítulo 10
    00:42:31.465                : en:Capítulo 11
    00:46:11.935                : en:Capítulo 12
    00:50:05.919                : en:Capítulo 13
    00:51:25.707                : en:Capítulo 14
    00:55:31.369                : en:Capítulo 15
    00:59:50.211                : en:Capítulo 16
    01:05:03.608                : en:Capítulo 17
    01:09:17.736                : en:Capítulo 18
    01:13:29.613                : en:Capítulo 19
    01:17:49.748                : en:Capítulo 20
    01:23:23.707                : en:Capítulo 21
    01:26:54.876                : en:Capítulo 22
    01:32:41.305                : en:Capítulo 23
    01:38:44.001                : en:Capítulo 24
    01:42:28.851                : en:Capítulo 25
    01:48:47.187                : en:Capítulo 26
    01:51:51.913                : en:Capítulo 27
    01:55:58.952                : en:Capítulo 28

  • Peso: 26.4 GiB

Sinopsis

Divertida, inquietante y sorprendente incursión en la América suburbana a través de las vidas de Lester y Carolyn, una pareja perteneciente a la clase medio-alta cuyo matrimonio -y cuyas vidas- lentamente se deshacen. Carolyn odia a su marido, su hija lo desprecia y su jefe está a punto de despedirlo. Así que Lester decide cambiar algunas cosas en su vida; a medida que va siendo más libre, consigue ser más feliz, lo que enfurece más a su esposa y a su hija.

Ficha técnica

Video trailer de la película

Enlaces de descarga

Rip de Bluray

Descargar American Beauty (1999) REMUX 1080p Latino – CMHDD


Aportes de DPeliculasHDmega la pass es:dpeliculashdmega.org Aportes de CinemaniaHD la pass es:cinemaniahdd.com Aportes recientes:cinemaniahdd.net
Guardado en : Drama

Películas relacionadas

descargar American Beauty (1999) REMUX 1080p Latino – CMHDD Full 1080p 1080p gratis, American Beauty (1999) REMUX 1080p Latino – CMHDD Full 1080p mega 1 link, American Beauty (1999) REMUX 1080p Latino – CMHDD Full 1080p pelicula completa, descargar American Beauty (1999) REMUX 1080p Latino – CMHDD Full 1080p gratis en mega.

American Beauty (1999) REMUX 1080p Latino – CMHDD pelicula full hd, American Beauty (1999) REMUX 1080p Latino – CMHDD mega latino, American Beauty (1999) REMUX 1080p Latino – CMHDD 4k latino, American Beauty (1999) REMUX 1080p Latino – CMHDD pelicula completa, American Beauty (1999) REMUX 1080p Latino – CMHDD descargar gratis, descargar American Beauty (1999) REMUX 1080p Latino – CMHDD pelicula latino, American Beauty (1999) REMUX 1080p Latino – CMHDD 1 link mega, American Beauty (1999) REMUX 1080p Latino – CMHDD 1 link google drive, American Beauty (1999) REMUX 1080p Latino – CMHDD hd 1080p latino.
Comentarios 0