Amenaza Roja (2012) REMUX 1080p Latino

40 vistas
1 estrella2 estrellas3 estrellas4 estrellas5 estrellas (1 votos, promedio: 5,00 de 5)
Cargando...

Información de Amenaza Roja (2012) REMUX 1080p Latino

Datos de la película

  • Calidad: Full 1080p
  • Audio: Español Latino AC3 2.0 BLURAY - Ingles DTS 5.1 BLURAY
  • Subtitulos: Español Latino SRT- FORZADOS SRT
  • Resolución: 1920x1080
  • Formato: MKV
  • Codec: H.264
  • Encoder: cinemaniahdd
  • Mediainfo: Clic para Mostrar Datos Ver
  • Red Dawn (2012) REMUX 1080p Latino.mkv
    Format                      : Matroska
    Format version              : Version 4
    File size                   : 27.7 GiB
    Duration                    : 1 h 33 min
    Overall bit rate mode       : Variable
    Overall bit rate            : 42.5 Mb/s
    Movie name                  : Red Dawn (2012) - CinemaniaHDD.Net
    Encoded date                : UTC 2020-08-05 01:19:17
    Writing application         : mkvmerge v46.0.0 ('No Deeper Escape') 64-bit
    Writing library             : libebml v1.3.10 + libmatroska v1.5.2

    Video
    ID                          : 1
    Format                      : AVC
    Format/Info                 : Advanced Video Codec
    Format profile              : High@L4.1
    Format settings             : CABAC / 4 Ref Frames
    Format settings, CABAC      : Yes
    Format settings, Reference  : 4 frames
    Codec ID                    : V_MPEG4/ISO/AVC
    Duration                    : 1 h 33 min
    Bit rate mode               : Variable
    Bit rate                    : 36.7 Mb/s
    Maximum bit rate            : 40.0 Mb/s
    Width                       : 1 920 pixels
    Height                      : 1 080 pixels
    Display aspect ratio        : 16:9
    Frame rate mode             : Constant
    Frame rate                  : 23.976 (24000/1001) FPS
    Color space                 : YUV
    Chroma subsampling          : 4:2:0
    Bit depth                   : 8 bits
    Scan type                   : Progressive
    Bits/(Pixel*Frame)          : 0.739
    Stream size                 : 23.9 GiB (86%)
    Title                       : CinemaniaHDD
    Default                     : Yes
    Forced                      : No

    Audio #1
    ID                          : 2
    Format                      : AC-3
    Format/Info                 : Audio Coding 3
    Commercial name             : Dolby Digital
    Codec ID                    : A_AC3
    Duration                    : 1 h 33 min
    Bit rate mode               : Constant
    Bit rate                    : 256 kb/s
    Channel(s)                  : 2 channels
    Channel layout              : L R
    Sampling rate               : 48.0 kHz
    Frame rate                  : 31.250 FPS (1536 SPF)
    Compression mode            : Lossy
    Stream size                 : 171 MiB (1%)
    Title                       : Español latino [CinemaniaHDD]
    Language                    : Spanish
    Service kind                : Complete Main
    Default                     : Yes
    Forced                      : No

    Audio #2
    ID                          : 3
    Format                      : DTS XLL
    Format/Info                 : Digital Theater Systems
    Commercial name             : DTS-HD Master Audio
    Codec ID                    : A_DTS
    Duration                    : 1 h 33 min
    Bit rate mode               : Variable
    Bit rate                    : 4 011 kb/s
    Channel(s)                  : 6 channels
    Channel layout              : C L R Ls Rs LFE
    Sampling rate               : 48.0 kHz
    Frame rate                  : 93.750 FPS (512 SPF)
    Bit depth                   : 24 bits
    Compression mode            : Lossless
    Stream size                 : 2.62 GiB (9%)
    Title                       : Inglés [CinemaniaHDD]
    Language                    : English
    Default                     : No
    Forced                      : No

    Audio #3
    ID                          : 4
    Format                      : DTS
    Format/Info                 : Digital Theater Systems
    Codec ID                    : A_DTS
    Duration                    : 1 h 33 min
    Bit rate mode               : Constant
    Bit rate                    : 1 509 kb/s
    Channel(s)                  : 6 channels
    Channel layout              : C L R Ls Rs LFE
    Sampling rate               : 48.0 kHz
    Frame rate                  : 93.750 FPS (512 SPF)
    Bit depth                   : 24 bits
    Compression mode            : Lossy
    Stream size                 : 1 008 MiB (4%)
    Title                       : Inglés - Core [CinemaniaHDD]
    Language                    : English
    Default                     : No
    Forced                      : No

    Text #1
    ID                          : 5
    Format                      : UTF-8
    Codec ID                    : S_TEXT/UTF8
    Codec ID/Info               : UTF-8 Plain Text
    Duration                    : 1 h 24 min
    Bit rate                    : 0 b/s
    Count of elements           : 10
    Stream size                 : 258 Bytes (0%)
    Title                       : Forzados [CinemaniaHDD]
    Language                    : Spanish
    Default                     : Yes
    Forced                      : Yes

    Text #2
    ID                          : 6
    Format                      : UTF-8
    Codec ID                    : S_TEXT/UTF8
    Codec ID/Info               : UTF-8 Plain Text
    Duration                    : 1 h 27 min
    Bit rate                    : 46 b/s
    Count of elements           : 878
    Stream size                 : 29.5 KiB (0%)
    Title                       : Español latino [CinemaniaHDD]
    Language                    : Spanish
    Default                     : No
    Forced                      : No

    Text #3
    ID                          : 7
    Format                      : PGS
    Muxing mode                 : zlib
    Codec ID                    : S_HDMV/PGS
    Codec ID/Info               : Picture based subtitle format used on BDs/HD-DVDs
    Duration                    : 1 h 32 min
    Bit rate                    : 26.4 kb/s
    Count of elements           : 1972
    Stream size                 : 17.5 MiB (0%)
    Title                       : Español latino - PGS [CinemaniaHDD]
    Language                    : Spanish
    Default                     : No
    Forced                      : No

    Text #4
    ID                          : 8
    Format                      : PGS
    Muxing mode                 : zlib
    Codec ID                    : S_HDMV/PGS
    Codec ID/Info               : Picture based subtitle format used on BDs/HD-DVDs
    Duration                    : 1 h 27 min
    Bit rate                    : 31.1 kb/s
    Count of elements           : 2008
    Stream size                 : 19.5 MiB (0%)
    Title                       : Inglés - PGS [CinemaniaHDD]
    Language                    : English
    Default                     : No
    Forced                      : No

    Menu
    00:00:00.000                : en:Logo/Main Title
    00:02:54.382                : en:Paratroopers
    00:05:01.384                : en:Supplies & Goodbyes
    00:07:54.474                : en:Colonel Bella
    00:10:24.832                : en:"World War III"
    00:16:08.217                : en:"Spirit of the Deer"
    00:18:55.551                : en:Back Into Town
    00:21:32.582                : en:"Avenge Me!"
    00:23:02.798                : en:Toni & Erica
    00:27:06.666                : en:Radio Free America
    00:31:16.833                : en:Revisionist History
    00:36:29.395                : en:Arapaho Battlefield
    00:41:27.985                : en:Serious Consequences
    00:43:40.743                : en:The Firing Squad
    00:50:37.617                : en:Retaliation
    00:53:56.441                : en:Defining Wolverine
    00:57:04.170                : en:Colonel Tanner
    00:59:06.918                : en:"a Bunch of Kids"
    01:03:11.454                : en:Tactical Destruction
    01:07:17.074                : en:The Front/the Tank
    01:09:55.858                : en:Talk of Quitting
    01:11:51.098                : en:"I Am a Hunter"
    01:15:40.911                : en:Hunting Wolverines
    01:18:19.903                : en:Betrayed
    01:20:55.809                : en:Convoys & Copters
    01:22:55.261                : en:Robert's Last Stand
    01:25:58.695                : en:Jed & Toni
    01:28:26.301                : en:Splitting Up

     

  • Peso: 27.7 GiB

Sinopsis

Remake de la película de 1984 de John Milius que narraba cómo ocho adolescentes huían a las montañas cuando su ciudad es invadida por un grupo de nacionalistas extranjeros. Bajo el nombre del equipo de fútbol del instituto, los Wolverines, estos adolescentes libran una incesante batalla con el fin de defender a sus padres, amigos y a su propio país.

Ficha técnica

Video trailer de la película

Enlaces de descarga

Rip de Bluray

Descargar Amenaza Roja (2012) REMUX 1080p Latino




Aportes de DPeliculasHDmega la pass es:dpeliculashdmega.org Aportes de CinemaniaHD la pass es:cinemaniahdd.com

Películas relacionadas

  • Rogue (2020) HD 1080p Latino

    Rogue (2020) HD 1080p Latino

    2020
    Rogue (2020) HD 1080p Latino

    0.0 1h 46m 2020

    Descargar Rogue (2020) HD 1080p Latino. O'Hara es una mercenaria que dirige un escuadrón de soldados...

    Director: M.J. Bassett

    Género: Acción

    Actores: Tamer Burjaq

  • Rogue (2020) PLACEBO Full HD 1080p Latino

    Rogue (2020) PLACEBO Full HD 1080p Latino

    2020
    Rogue (2020) PLACEBO Full HD 1080p Latino

    0.0 1h 46m 2020

    Descargar Rogue (2020) PLACEBO Full HD 1080p Latino. O'Hara es una mercenaria que dirige un escuadrón...

    Director: M.J. Bassett

    Género: Acción

    Actores: Tamer Burjaq

  • Rogue (2020) REMUX 1080p Latino

    Rogue (2020) REMUX 1080p Latino

    2020
    Rogue (2020) REMUX 1080p Latino

    0.0 1h 46m 2020

    Descargar Rogue (2020) REMUX 1080p Latino. O'Hara es una mercenaria que dirige un escuadrón de soldados...

    Director: M.J. Bassett

    Género: Acción

    Actores: Tamer Burjaq

  • No Mercy (2019) HD 1080p Latino

    No Mercy (2019) HD 1080p Latino

    2019
    No Mercy (2019) HD 1080p Latino

    5.0 1h 34m 2019

    Una mujer busca vengarse cuando su joven hermana desaparece y descubre que ésta sufrió violencia y...

    Director: Lim Kyoung-tack

    Género: Acción

    Actores: Park Se-wan

Comentarios 1
  • ocpgaiden - 07 agosto, 2020

    Gracias por el remux, saludos