×

¿Problemas para descargar con Mozilla, EDGE? Deshabilita la opción "Abrir vinculos en una pestaña nueva" tal como lo muestra ésta imagen.

Ambulance: Plan de Huida (2022) PLACEBO Full HD 1080p Latino

805 vistas

Información de Ambulance: Plan de Huida (2022) PLACEBO Full HD 1080p Latino

Datos de la película

  • Calidad: Full 1080p
  • Audio: Español Latino AC3 5.1 WEB-DL - Ingles AC3 5.1 BLURAY
  • Subtitulos: Español Latino SRT- FORZADOS SRT
  • Resolución: 1920x1080p
  • Formato: MKV
  • Codec: H.264
  • Encoder: Melkor
  • Mediainfo: Clic para Mostrar Datos Ver
  • Ambulancia (2022) PLACEBO 1080p Latino.mkv
    Format                      : Matroska
    Format version              : Version 4
    File size                   : 6.07 GiB
    Duration                    : 2 h 16 min
    Overall bit rate            : 6 372 kb/s
    Movie name                  : Ambulance (2022) CinemaniaHDD.Net
    Encoded date                : UTC 2022-06-05 05:35:25
    Writing application         : mkvmerge v56.1.0 ('My Friend') 64-bit
    Writing library             : libebml v1.4.2 + libmatroska v1.6.4
    Attachments                 : CINEMANIAHD.png

    Video
    ID                          : 1
    Format                      : AVC
    Format/Info                 : Advanced Video Codec
    Format profile              : High@L4.1
    Format settings             : CABAC / 4 Ref Frames
    Format settings, CABAC      : Yes
    Format settings, Reference  : 4 frames
    Codec ID                    : V_MPEG4/ISO/AVC
    Duration                    : 2 h 16 min
    Bit rate                    : 5 444 kb/s
    Width                       : 1 920 pixels
    Height                      : 1 080 pixels
    Display aspect ratio        : 16:9
    Frame rate mode             : Constant
    Frame rate                  : 23.976 (24000/1001) FPS
    Color space                 : YUV
    Chroma subsampling          : 4:2:0
    Bit depth                   : 8 bits
    Scan type                   : Progressive
    Bits/(Pixel*Frame)          : 0.110
    Stream size                 : 5.18 GiB (85%)
    Title                       : Full HD1080p [CinemaniaHDD]
    Writing library             : x264 core 163 r3059 b684ebe0
    Encoding settings           : cabac=1 / ref=4 / deblock=1:0:0 / analyse=0x3:0x133 / me=tesa / subme=11 / psy=1 / psy_rd=1.00:0.00 / mixed_ref=1 / me_range=24 / chroma_me=1 / trellis=2 / 8x8dct=1 / cqm=0 / deadzone=21,11 / fast_pskip=0 / chroma_qp_offset=-2 / threads=24 / lookahead_threads=6 / sliced_threads=0 / nr=0 / decimate=1 / interlaced=0 / bluray_compat=0 / constrained_intra=0 / bframes=16 / b_pyramid=2 / b_adapt=2 / b_bias=0 / direct=3 / weightb=1 / open_gop=0 / weightp=2 / keyint=240 / keyint_min=24 / scenecut=40 / intra_refresh=0 / rc_lookahead=60 / rc=crf / mbtree=1 / crf=19.0 / qcomp=0.60 / qpmin=0 / qpmax=69 / qpstep=4 / vbv_maxrate=62500 / vbv_bufsize=78125 / crf_max=0.0 / nal_hrd=none / filler=0 / ip_ratio=1.40 / aq=1:1.00
    Default                     : Yes
    Forced                      : Yes
    Color range                 : Limited
    Color primaries             : BT.709
    Transfer characteristics    : BT.709
    Matrix coefficients         : BT.709

    Audio #1
    ID                          : 2
    Format                      : AC-3
    Format/Info                 : Audio Coding 3
    Commercial name             : Dolby Digital
    Codec ID                    : A_AC3
    Duration                    : 2 h 16 min
    Bit rate mode               : Constant
    Bit rate                    : 448 kb/s
    Channel(s)                  : 6 channels
    Channel layout              : L R C LFE Ls Rs
    Sampling rate               : 48.0 kHz
    Frame rate                  : 31.250 FPS (1536 SPF)
    Compression mode            : Lossy
    Stream size                 : 437 MiB (7%)
    Title                       : Español Latino [CinemaniaHDD]
    Language                    : Spanish
    Service kind                : Complete Main
    Default                     : Yes
    Forced                      : Yes

    Audio #2
    ID                          : 3
    ID in the original source m : 4352 (0x1100)
    Format                      : AC-3
    Format/Info                 : Audio Coding 3
    Commercial name             : Dolby Digital
    Codec ID                    : A_AC3
    Duration                    : 2 h 16 min
    Bit rate mode               : Constant
    Bit rate                    : 448 kb/s
    Channel(s)                  : 6 channels
    Channel layout              : L R C LFE Ls Rs
    Sampling rate               : 48.0 kHz
    Frame rate                  : 31.250 FPS (1536 SPF)
    Compression mode            : Lossy
    Stream size                 : 437 MiB (7%)
    Title                       : Ingles [CinemaniaHDD]
    Language                    : English
    Service kind                : Complete Main
    Default                     : No
    Forced                      : No
    Original source medium      : Blu-ray

    Text #1
    ID                          : 4
    Format                      : UTF-8
    Codec ID                    : S_TEXT/UTF8
    Codec ID/Info               : UTF-8 Plain Text
    Duration                    : 2 h 13 min
    Bit rate                    : 0 b/s
    Count of elements           : 36
    Stream size                 : 650 Bytes (0%)
    Title                       : Forzados-SRT [CinemaniaHDD]
    Language                    : Spanish
    Default                     : Yes
    Forced                      : Yes

    Text #2
    ID                          : 5
    Format                      : UTF-8
    Codec ID                    : S_TEXT/UTF8
    Codec ID/Info               : UTF-8 Plain Text
    Duration                    : 2 h 15 min
    Bit rate                    : 71 b/s
    Count of elements           : 2364
    Stream size                 : 71.1 KiB (0%)
    Title                       : Español-SRT [CinemaniaHDD]
    Language                    : Spanish
    Default                     : No
    Forced                      : No

    Text #3
    ID                          : 6
    ID in the original source m : 4608 (0x1200)
    Format                      : PGS
    Muxing mode                 : zlib
    Codec ID                    : S_HDMV/PGS
    Codec ID/Info               : Picture based subtitle format used on BDs/HD-DVDs
    Duration                    : 2 h 11 min
    Bit rate                    : 61.5 kb/s
    Count of elements           : 5000
    Stream size                 : 58.0 MiB (1%)
    Title                       : Ingles [CinemaniaHDD]
    Language                    : English
    Default                     : No
    Forced                      : No
    Original source medium      : Blu-ray

    Menu
    00:00:00.000                : Chapter 01
    00:07:57.268                : Chapter 02
    00:15:41.941                : Chapter 03
    00:22:57.542                : Chapter 04
    00:29:59.631                : Chapter 05
    00:37:01.802                : Chapter 06
    00:43:27.646                : Chapter 07
    00:49:34.554                : Chapter 08
    00:56:07.655                : Chapter 09
    01:02:35.168                : Chapter 10
    01:07:09.025                : Chapter 11
    01:12:45.069                : Chapter 12
    01:21:00.605                : Chapter 13
    01:31:12.717                : Chapter 14
    01:40:04.206                : Chapter 15
    01:49:48.373                : Chapter 16
    01:56:06.250                : Chapter 17
    02:00:46.030                : Chapter 18
    02:06:52.521                : Chapter 19
    02:13:47.853                : Chapter 20

  • Peso: 6.07 GiB

Sinopsis

Descargar Ambulance: Plan de Huida (2022) PLACEBO Full HD 1080p Latino. El veterano Will Sharp, en un acto desesperado por conseguir dinero para cubrir las deudas médicas de su esposa, recurre a la única persona que sabe que no debería, su hermano adoptivo Danny. Danny le ofrece participar en un robo a un banco, el más grande en la historia de la ciudad. Will no puede decir que no. Cuando su intento de escape sale mal, los hermanos secuestran una ambulancia con un policía herido y una paramédica. Ahora deberán huir de un inmenso dispositivo de fuerzas de seguridad desplegado por toda la ciudad, mantener a sus rehenes con vida y de alguna forma tratar de no matarse entre ellos.

Ficha técnica

Video trailer de la película

Enlaces de descarga

Rip de Bluray

Descargar Ambulance: Plan de Huida (2022) PLACEBO Full HD 1080p Latino




Aportes de DPeliculasHDmega la pass es:dpeliculashdmega.org Aportes de CinemaniaHD la pass es:cinemaniahdd.com

Películas relacionadas

descargar Ambulance: Plan de Huida (2022) PLACEBO Full HD 1080p Latino Full 1080p 1080p gratis, Ambulance: Plan de Huida (2022) PLACEBO Full HD 1080p Latino Full 1080p mega 1 link, Ambulance: Plan de Huida (2022) PLACEBO Full HD 1080p Latino Full 1080p pelicula completa, descargar Ambulance: Plan de Huida (2022) PLACEBO Full HD 1080p Latino Full 1080p gratis en mega.

Ambulance: Plan de Huida (2022) PLACEBO Full HD 1080p Latino pelicula full hd, Ambulance: Plan de Huida (2022) PLACEBO Full HD 1080p Latino mega latino, Ambulance: Plan de Huida (2022) PLACEBO Full HD 1080p Latino 4k latino, Ambulance: Plan de Huida (2022) PLACEBO Full HD 1080p Latino pelicula completa, Ambulance: Plan de Huida (2022) PLACEBO Full HD 1080p Latino descargar gratis, descargar Ambulance: Plan de Huida (2022) PLACEBO Full HD 1080p Latino pelicula latino, Ambulance: Plan de Huida (2022) PLACEBO Full HD 1080p Latino 1 link mega, Ambulance: Plan de Huida (2022) PLACEBO Full HD 1080p Latino 1 link google drive, Ambulance: Plan de Huida (2022) PLACEBO Full HD 1080p Latino hd 1080p latino.
Comentarios 0