×

¿Problemas para descargar con Mozilla, EDGE? Deshabilita la opción "Abrir vinculos en una pestaña nueva" tal como lo muestra ésta imagen.

Ambulance: Plan de Huida (2022) HD 1080p Latino

428 vistas

Información de Ambulance: Plan de Huida (2022) HD 1080p Latino

Datos de la película

  • Calidad: 1080p
  • Audio: Español Latino AC3 5.1 WEB-DL - Ingles AC3 5.1 BLURAY
  • Subtitulos: Español Latino SRT- FORZADOS SRT
  • Resolución: 1920x804p
  • Formato: MKV
  • Codec: H.264
  • Encoder: Melkor
  • Mediainfo: Clic para Mostrar Datos Ver
  • Ambulancia (2022) HD 1080p Latino.mkv
    Format                      : Matroska
    Format version              : Version 4
    File size                   : 4.14 GiB
    Duration                    : 2 h 16 min
    Overall bit rate            : 4 344 kb/s
    Movie name                  : Ambulance (2022) CinemaniaHDD.Net
    Encoded date                : UTC 2022-06-05 05:37:27
    Writing application         : mkvmerge v56.1.0 ('My Friend') 64-bit
    Writing library             : libebml v1.4.2 + libmatroska v1.6.4
    Attachments                 : CINEMANIAHD.png

    Video
    ID                          : 1
    Format                      : AVC
    Format/Info                 : Advanced Video Codec
    Format profile              : High@L4.1
    Format settings             : CABAC / 5 Ref Frames
    Format settings, CABAC      : Yes
    Format settings, Reference  : 5 frames
    Codec ID                    : V_MPEG4/ISO/AVC
    Duration                    : 2 h 16 min
    Bit rate                    : 3 500 kb/s
    Width                       : 1 920 pixels
    Height                      : 804 pixels
    Display aspect ratio        : 2.40:1
    Frame rate mode             : Constant
    Frame rate                  : 23.976 (24000/1001) FPS
    Color space                 : YUV
    Chroma subsampling          : 4:2:0
    Bit depth                   : 8 bits
    Scan type                   : Progressive
    Bits/(Pixel*Frame)          : 0.095
    Stream size                 : 3.28 GiB (79%)
    Title                       : HD1080p [CinemaniaHDD]
    Writing library             : x264 core 163 r3059 b684ebe0
    Encoding settings           : cabac=1 / ref=5 / deblock=1:-1:-1 / analyse=0x3:0x133 / me=umh / subme=9 / psy=1 / psy_rd=1.00:0.15 / mixed_ref=1 / me_range=16 / chroma_me=1 / trellis=2 / 8x8dct=1 / cqm=0 / deadzone=21,11 / fast_pskip=1 / chroma_qp_offset=-3 / threads=24 / lookahead_threads=2 / sliced_threads=0 / nr=0 / decimate=1 / interlaced=0 / bluray_compat=0 / constrained_intra=0 / bframes=3 / b_pyramid=2 / b_adapt=2 / b_bias=0 / direct=3 / weightb=1 / open_gop=0 / weightp=2 / keyint=240 / keyint_min=24 / scenecut=40 / intra_refresh=0 / rc_lookahead=60 / rc=abr / mbtree=1 / bitrate=3500 / ratetol=1.0 / qcomp=0.60 / qpmin=0 / qpmax=69 / qpstep=4 / vbv_maxrate=62500 / vbv_bufsize=78125 / nal_hrd=none / filler=0 / ip_ratio=1.40 / aq=1:1.00
    Default                     : Yes
    Forced                      : Yes
    Color range                 : Limited
    Color primaries             : BT.709
    Transfer characteristics    : BT.709
    Matrix coefficients         : BT.709

    Audio #1
    ID                          : 2
    Format                      : AC-3
    Format/Info                 : Audio Coding 3
    Commercial name             : Dolby Digital
    Codec ID                    : A_AC3
    Duration                    : 2 h 16 min
    Bit rate mode               : Constant
    Bit rate                    : 448 kb/s
    Channel(s)                  : 6 channels
    Channel layout              : L R C LFE Ls Rs
    Sampling rate               : 48.0 kHz
    Frame rate                  : 31.250 FPS (1536 SPF)
    Compression mode            : Lossy
    Stream size                 : 437 MiB (10%)
    Title                       : Español Latino [CinemaniaHDD]
    Language                    : Spanish
    Service kind                : Complete Main
    Default                     : Yes
    Forced                      : Yes

    Audio #2
    ID                          : 3
    ID in the original source m : 4352 (0x1100)
    Format                      : AC-3
    Format/Info                 : Audio Coding 3
    Commercial name             : Dolby Digital
    Codec ID                    : A_AC3
    Duration                    : 2 h 16 min
    Bit rate mode               : Constant
    Bit rate                    : 448 kb/s
    Channel(s)                  : 6 channels
    Channel layout              : L R C LFE Ls Rs
    Sampling rate               : 48.0 kHz
    Frame rate                  : 31.250 FPS (1536 SPF)
    Compression mode            : Lossy
    Stream size                 : 437 MiB (10%)
    Title                       : Ingles [CinemaniaHDD]
    Language                    : English
    Service kind                : Complete Main
    Default                     : No
    Forced                      : No
    Original source medium      : Blu-ray

    Text #1
    ID                          : 4
    Format                      : UTF-8
    Codec ID                    : S_TEXT/UTF8
    Codec ID/Info               : UTF-8 Plain Text
    Duration                    : 2 h 13 min
    Bit rate                    : 0 b/s
    Count of elements           : 36
    Stream size                 : 650 Bytes (0%)
    Title                       : Forzados-SRT [CinemaniaHDD]
    Language                    : Spanish
    Default                     : Yes
    Forced                      : Yes

    Text #2
    ID                          : 5
    Format                      : UTF-8
    Codec ID                    : S_TEXT/UTF8
    Codec ID/Info               : UTF-8 Plain Text
    Duration                    : 2 h 15 min
    Bit rate                    : 71 b/s
    Count of elements           : 2364
    Stream size                 : 71.1 KiB (0%)
    Title                       : Español-SRT [CinemaniaHDD]
    Language                    : Spanish
    Default                     : No
    Forced                      : No

    Text #3
    ID                          : 6
    Format                      : UTF-8
    Codec ID                    : S_TEXT/UTF8
    Codec ID/Info               : UTF-8 Plain Text
    Duration                    : 2 h 15 min
    Bit rate                    : 84 b/s
    Count of elements           : 2850
    Stream size                 : 83.8 KiB (0%)
    Title                       : Ingles-SRT [CinemaniaHDD]
    Language                    : English
    Default                     : No
    Forced                      : No

    Menu
    00:00:00.000                : Chapter 01
    00:07:57.268                : Chapter 02
    00:15:41.941                : Chapter 03
    00:22:57.542                : Chapter 04
    00:29:59.631                : Chapter 05
    00:37:01.802                : Chapter 06
    00:43:27.646                : Chapter 07
    00:49:34.554                : Chapter 08
    00:56:07.655                : Chapter 09
    01:02:35.168                : Chapter 10
    01:07:09.025                : Chapter 11
    01:12:45.069                : Chapter 12
    01:21:00.605                : Chapter 13
    01:31:12.717                : Chapter 14
    01:40:04.206                : Chapter 15
    01:49:48.373                : Chapter 16
    01:56:06.250                : Chapter 17
    02:00:46.030                : Chapter 18
    02:06:52.521                : Chapter 19
    02:13:47.853                : Chapter 20

  • Peso: 4.14 GiB

Sinopsis

Descargar Ambulance: Plan de Huida (2022) HD 1080p Latino. El veterano Will Sharp, en un acto desesperado por conseguir dinero para cubrir las deudas médicas de su esposa, recurre a la única persona que sabe que no debería, su hermano adoptivo Danny. Danny le ofrece participar en un robo a un banco, el más grande en la historia de la ciudad. Will no puede decir que no. Cuando su intento de escape sale mal, los hermanos secuestran una ambulancia con un policía herido y una paramédica. Ahora deberán huir de un inmenso dispositivo de fuerzas de seguridad desplegado por toda la ciudad, mantener a sus rehenes con vida y de alguna forma tratar de no matarse entre ellos.

Ficha técnica

Video trailer de la película

Enlaces de descarga

Rip de Bluray

Descargar Ambulance: Plan de Huida (2022) HD 1080p Latino




Aportes de DPeliculasHDmega la pass es:dpeliculashdmega.org Aportes de CinemaniaHD la pass es:cinemaniahdd.com
Guardado en : Acción , Crimen , HD 1080p , Suspenso

Películas relacionadas

  • El discurso del Rey (2010) 1080p Latino

    El discurso del Rey (2010) 1080p Latino

    2010
    El discurso del Rey (2010) 1080p Latino

    1h 58m 2010

    Descargar El discurso del Rey (2010) 1080p Latino. El duque de York se convirtió en rey de Gran Bretaña...

    Director: Tom Hooper

    Género: Drama

    Actores: Tony Earnshaw

  • Lucy (2014) REMUX 4K HDR Latino – CMHDD

    Lucy (2014) REMUX 4K HDR Latino – CMHDD

    2014
    Lucy (2014) REMUX 4K HDR Latino – CMHDD

    1h 30m 2014

    Lucy, una joven obligada a ejercer de mula de una nueva y potente droga, adquiere de repente enormes...

    Director: Luc Besson

    Género: Acción

    Actores: Wolfgang Pissors

descargar Ambulance: Plan de Huida (2022) HD 1080p Latino 1080p 1080p gratis, Ambulance: Plan de Huida (2022) HD 1080p Latino 1080p mega 1 link, Ambulance: Plan de Huida (2022) HD 1080p Latino 1080p pelicula completa, descargar Ambulance: Plan de Huida (2022) HD 1080p Latino 1080p gratis en mega.

Ambulance: Plan de Huida (2022) HD 1080p Latino pelicula full hd, Ambulance: Plan de Huida (2022) HD 1080p Latino mega latino, Ambulance: Plan de Huida (2022) HD 1080p Latino 4k latino, Ambulance: Plan de Huida (2022) HD 1080p Latino pelicula completa, Ambulance: Plan de Huida (2022) HD 1080p Latino descargar gratis, descargar Ambulance: Plan de Huida (2022) HD 1080p Latino pelicula latino, Ambulance: Plan de Huida (2022) HD 1080p Latino 1 link mega, Ambulance: Plan de Huida (2022) HD 1080p Latino 1 link google drive, Ambulance: Plan de Huida (2022) HD 1080p Latino hd 1080p latino.
Comentarios 0