×

¿Problemas para descargar con Mozilla, EDGE? Deshabilita la opción "Abrir vinculos en una pestaña nueva" tal como lo muestra ésta imagen.

Amazon Music Live with Feid (2023) AMZN WEB-DL 1080p Latino

143 vistas

Información de Amazon Music Live with Feid (2023) AMZN WEB-DL 1080p Latino

Datos de la película

  • Calidad: 1080p
  • Audio: Español Latino AC3 2.0
  • Subtitulos: Español Latino SRT - Ingles SRT
  • Resolución: 1920x1080
  • Formato: MKV
  • Codec: H.264
  • Encoder: cinemaniahdd
  • Mediainfo: Clic para Mostrar Datos Ver
  • Amazon Music Live with Feid (2023) AMZN WEB-DL 1080p Latino [CNMNHDD].mkv
    Format                      : Matroska
    Format version              : Version 4
    File size                   : 3.05 GiB
    Duration                    : 44 min 35 s
    Overall bit rate            : 9 781 kb/s
    Movie name                  : Amazon Music Live with Feid (2023) - Amazon Music Live with Feid [1080p] - CinemaniaHDD.Net
    Encoded date                : UTC 2023-10-13 02:14:56
    Writing application         : mkvmerge v56.1.0 ('My Friend') 64-bit
    Writing library             : libebml v1.4.2 + libmatroska v1.6.4

    Video
    ID                          : 1
    Format                      : AVC
    Format/Info                 : Advanced Video Codec
    Format profile              : High@L4
    Format settings             : CABAC / 4 Ref Frames
    Format settings, CABAC      : Yes
    Format settings, Reference  : 4 frames
    Codec ID                    : V_MPEG4/ISO/AVC
    Duration                    : 44 min 35 s
    Bit rate mode               : Constant
    Bit rate                    : 9 171 kb/s
    Nominal bit rate            : 10 000 kb/s
    Width                       : 1 920 pixels
    Height                      : 1 080 pixels
    Display aspect ratio        : 16:9
    Frame rate mode             : Constant
    Frame rate                  : 23.976 (24000/1001) FPS
    Color space                 : YUV
    Chroma subsampling          : 4:2:0
    Bit depth                   : 8 bits
    Scan type                   : Progressive
    Bits/(Pixel*Frame)          : 0.184
    Stream size                 : 2.86 GiB (94%)
    Title                       : CinemaniaHDD
    Default                     : Yes
    Forced                      : No
    Color range                 : Limited
    Color primaries             : BT.709
    Transfer characteristics    : BT.709
    Matrix coefficients         : BT.709

    Audio #1
    ID                          : 2
    Format                      : AC-3
    Format/Info                 : Audio Coding 3
    Commercial name             : Dolby Digital
    Codec ID                    : A_AC3
    Duration                    : 44 min 35 s
    Bit rate mode               : Constant
    Bit rate                    : 384 kb/s
    Channel(s)                  : 2 channels
    Channel layout              : L R
    Sampling rate               : 48.0 kHz
    Frame rate                  : 31.250 FPS (1536 SPF)
    Compression mode            : Lossy
    Stream size                 : 122 MiB (4%)
    Title                       : Español latino [CinemaniaHDD]
    Language                    : Spanish
    Service kind                : Complete Main
    Default                     : Yes
    Forced                      : No

    Audio #2
    ID                          : 3
    Format                      : E-AC-3
    Format/Info                 : Enhanced AC-3
    Commercial name             : Dolby Digital Plus
    Codec ID                    : A_EAC3
    Duration                    : 44 min 35 s
    Bit rate mode               : Constant
    Bit rate                    : 224 kb/s
    Channel(s)                  : 2 channels
    Channel layout              : L R
    Sampling rate               : 48.0 kHz
    Frame rate                  : 31.250 FPS (1536 SPF)
    Compression mode            : Lossy
    Stream size                 : 71.4 MiB (2%)
    Title                       : Español latino / E-AC3 [CinemaniaHDD]
    Language                    : Spanish
    Service kind                : Complete Main
    Default                     : No
    Forced                      : No

    Text #1
    ID                          : 4
    Format                      : UTF-8
    Codec ID                    : S_TEXT/UTF8
    Codec ID/Info               : UTF-8 Plain Text
    Duration                    : 44 min 22 s
    Bit rate                    : 77 b/s
    Count of elements           : 749
    Stream size                 : 25.1 KiB (0%)
    Title                       : Español latino [CinemaniaHDD]
    Language                    : Spanish
    Default                     : Yes
    Forced                      : Yes

    Text #2
    ID                          : 5
    Format                      : UTF-8
    Codec ID                    : S_TEXT/UTF8
    Codec ID/Info               : UTF-8 Plain Text
    Duration                    : 44 min 28 s
    Bit rate                    : 74 b/s
    Count of elements           : 738
    Stream size                 : 24.4 KiB (0%)
    Title                       : Inglés [CinemaniaHDD]
    Language                    : English
    Default                     : No
    Forced                      : No

    Menu
    00:00:00.000                : 1. Studio Logo
    00:00:06.000                : 2. Title Sequence
    00:00:16.000                : Scene 3
    00:06:37.000                : Scene 4
    00:10:38.000                : Scene 5
    00:13:44.000                : Scene 6
    00:17:05.000                : Scene 7
    00:20:10.000                : Scene 8
    00:24:45.000                : Scene 9
    00:28:35.000                : Scene 10
    00:33:12.000                : Scene 11
    00:40:07.000                : Scene 12
    00:44:31.000                : 13. End Credits

     

  • Peso: 3.05 GiB

Sinopsis

Únase a la superestrella latina Feid mientras ofrece una actuación inolvidable que incluye nueva música de su próximo álbum, MOR, No Le Temas A La Oscuridad, a continuación en Amazon Music Live. Míralo todo con el presentador 2 Chainz en Prime Video: cuando termina el juego, comienza la música en vivo. Versión interpretada de rendimiento ASL disponible.

Ficha técnica

  • Titulo original: Amazon Music Live with Feid
  • Fecha de lanzamiento: 05-10-2023 (United States of America)
  • Director: Micah Bickham
  • Género: Documental, Música

Video trailer de la película

Enlaces de descarga

Rip de Bluray

Descargar Amazon Music Live with Feid (2023) AMZN WEB-DL 1080p Latino




Aportes de DPeliculasHDmega la pass es:dpeliculashdmega.org Aportes de CinemaniaHD la pass es:cinemaniahdd.com Aportes recientes:cinemaniahdd.net
Guardado en : Documental , Música

Películas relacionadas

descargar Amazon Music Live with Feid (2023) AMZN WEB-DL 1080p Latino 1080p 1080p gratis, Amazon Music Live with Feid (2023) AMZN WEB-DL 1080p Latino 1080p mega 1 link, Amazon Music Live with Feid (2023) AMZN WEB-DL 1080p Latino 1080p pelicula completa, descargar Amazon Music Live with Feid (2023) AMZN WEB-DL 1080p Latino 1080p gratis en mega.

Amazon Music Live with Feid (2023) AMZN WEB-DL 1080p Latino pelicula full hd, Amazon Music Live with Feid (2023) AMZN WEB-DL 1080p Latino mega latino, Amazon Music Live with Feid (2023) AMZN WEB-DL 1080p Latino 4k latino, Amazon Music Live with Feid (2023) AMZN WEB-DL 1080p Latino pelicula completa, Amazon Music Live with Feid (2023) AMZN WEB-DL 1080p Latino descargar gratis, descargar Amazon Music Live with Feid (2023) AMZN WEB-DL 1080p Latino pelicula latino, Amazon Music Live with Feid (2023) AMZN WEB-DL 1080p Latino 1 link mega, Amazon Music Live with Feid (2023) AMZN WEB-DL 1080p Latino 1 link google drive, Amazon Music Live with Feid (2023) AMZN WEB-DL 1080p Latino hd 1080p latino.
Comentarios 0