×

¿Problemas para descargar con Mozilla, EDGE? Deshabilita la opción "Abrir vinculos en una pestaña nueva" tal como lo muestra ésta imagen.

Amadas Hermanas (2014) WEB-DL 1080p Latino

239 vistas

Información de Amadas Hermanas (2014) WEB-DL 1080p Latino

Datos de la película

  • Calidad:
  • Audio: Español Latino AC3 2.0 - Ingles AC3 2.0
  • Subtitulos: Español Latino SRT- FORZADOS SRT
  • Resolución: 1920x1080
  • Formato: MKV
  • Codec: H.264
  • Encoder: cinemaniahdd
  • Mediainfo: Clic para Mostrar Datos Ver
  • Amadas Hermanas (2014) WEB-DL 1080p Latino [CNMNHDD].mkv
    Format                      : Matroska
    Format version              : Version 4
    File size                   : 4.78 GiB
    Duration                    : 2 h 10 min
    Overall bit rate            : 5 227 kb/s
    Movie name                  : Amadas Hermanas - CinemaniaHDD.Net
    Encoded date                : UTC 2020-08-04 18:52:08
    Writing application         : mkvmerge v46.0.0 ('No Deeper Escape') 64-bit
    Writing library             : libebml v1.3.10 + libmatroska v1.5.2

    Video
    ID                          : 1
    Format                      : AVC
    Format/Info                 : Advanced Video Codec
    Format profile              : High@L4
    Format settings             : CABAC / 2 Ref Frames
    Format settings, CABAC      : Yes
    Format settings, Reference  : 2 frames
    Codec ID                    : V_MPEG4/ISO/AVC
    Duration                    : 2 h 10 min
    Bit rate                    : 5 000 kb/s
    Width                       : 1 920 pixels
    Height                      : 1 080 pixels
    Display aspect ratio        : 16:9
    Frame rate mode             : Constant
    Frame rate                  : 29.970 (29970/1000) FPS
    Color space                 : YUV
    Chroma subsampling          : 4:2:0
    Bit depth                   : 8 bits
    Scan type                   : Progressive
    Bits/(Pixel*Frame)          : 0.080
    Stream size                 : 4.54 GiB (95%)
    Title                       : CinemaniaHDD
    Writing library             : x264 core 148 r2579M 73ae2d1
    Encoding settings           : cabac=1 / ref=2 / deblock=1:0:0 / analyse=0x3:0x113 / me=hex / subme=2 / psy=1 / psy_rd=1.00:0.00 / mixed_ref=0 / me_range=16 / chroma_me=1 / trellis=0 / 8x8dct=1 / cqm=0 / deadzone=21,11 / fast_pskip=1 / chroma_qp_offset=0 / threads=4 / lookahead_threads=1 / sliced_threads=0 / nr=250 / decimate=1 / interlaced=0 / bluray_compat=0 / stitchable=1 / constrained_intra=0 / bframes=0 / weightp=1 / keyint=250 / keyint_min=25 / scenecut=40 / intra_refresh=0 / rc_lookahead=10 / rc=2pass / mbtree=1 / bitrate=5000 / ratetol=1.0 / qcomp=0.60 / qpmin=5 / qpmax=69 / qpstep=4 / cplxblur=20.0 / qblur=0.5 / vbv_maxrate=10000 / vbv_bufsize=5000 / nal_hrd=none / filler=0 / ip_ratio=1.40 / aq=1:1.00
    Language                    : Spanish
    Default                     : Yes
    Forced                      : No
    Color range                 : Limited
    Color primaries             : BT.709
    Transfer characteristics    : BT.709
    Matrix coefficients         : BT.709

    Audio #1
    ID                          : 2
    Format                      : AAC LC SBR
    Format/Info                 : Advanced Audio Codec Low Complexity with Spectral Band Replication
    Commercial name             : HE-AAC
    Format settings             : Explicit
    Codec ID                    : A_AAC-2
    Duration                    : 2 h 10 min
    Bit rate                    : 127 kb/s
    Channel(s)                  : 2 channels
    Channel layout              : L R
    Sampling rate               : 48.0 kHz
    Frame rate                  : 23.438 FPS (2048 SPF)
    Compression mode            : Lossy
    Stream size                 : 119 MiB (2%)
    Title                       : Español latino [CinemaniaHDD]
    Language                    : Spanish
    Default                     : Yes
    Forced                      : Yes

    Audio #2
    ID                          : 3
    Format                      : AAC LC SBR
    Format/Info                 : Advanced Audio Codec Low Complexity with Spectral Band Replication
    Commercial name             : HE-AAC
    Format settings             : Explicit
    Codec ID                    : A_AAC-2
    Duration                    : 2 h 10 min
    Bit rate                    : 127 kb/s
    Channel(s)                  : 2 channels
    Channel layout              : L R
    Sampling rate               : 48.0 kHz
    Frame rate                  : 23.438 FPS (2048 SPF)
    Compression mode            : Lossy
    Stream size                 : 119 MiB (2%)
    Title                       : Aleman [CinemaniaHDD]
    Language                    : German
    Default                     : No
    Forced                      : No

    Text #1
    ID                          : 4
    Format                      : UTF-8
    Codec ID                    : S_TEXT/UTF8
    Codec ID/Info               : UTF-8 Plain Text
    Duration                    : 1 h 49 min
    Bit rate                    : 0 b/s
    Count of elements           : 7
    Stream size                 : 111 Bytes (0%)
    Title                       : Forzados [CinemaniaHDD]
    Language                    : Spanish
    Default                     : Yes
    Forced                      : Yes

    Text #2
    ID                          : 5
    Format                      : UTF-8
    Codec ID                    : S_TEXT/UTF8
    Codec ID/Info               : UTF-8 Plain Text
    Duration                    : 2 h 9 min
    Bit rate                    : 74 b/s
    Count of elements           : 1882
    Stream size                 : 70.3 KiB (0%)
    Title                       : Español latino [CinemaniaHDD]
    Language                    : Spanish
    Default                     : No
    Forced                      : No

     

  • Peso: 4.78 GiB

Sinopsis

Verano de 1788 en Rudolstadt, una pequeña ciudad rural de Alemania. La hermosa Caroline von Beulwitz está infelizmente casada, deseando amar y vivir plenamente. Charlotte von Lengefeld, su tímida hermana, sueña con encontrar un marido. Las dos son un solo corazón y una sola alma, hasta que él entra en sus vidas: Friedrich Schiller, el poeta que escribió «The Robbers», que se convirtió en una sensación de la noche a la mañana, y adalid de los ideales republicanos protorrevolucionarios. Durante el cálido verano, las dos mujeres compiten por él.

Ficha técnica

  • Titulo original: Die geliebten Schwestern
  • Fecha de lanzamiento: 31-07-2014 (Austria, Germany, Switzerland)
  • Director: Dominik Graf
  • Género: Drama, Historia, Romance

Video trailer de la película

Enlaces de descarga

Rip de Bluray

Descargar Amadas Hermanas (2014) WEB-DL 1080p Latino




Aportes de DPeliculasHDmega la pass es:dpeliculashdmega.org Aportes de CinemaniaHD la pass es:cinemaniahdd.com
Guardado en : Drama , Historia , Romance

Películas relacionadas

descargar Amadas Hermanas (2014) WEB-DL 1080p Latino 1080p gratis, Amadas Hermanas (2014) WEB-DL 1080p Latino mega 1 link, Amadas Hermanas (2014) WEB-DL 1080p Latino pelicula completa, descargar Amadas Hermanas (2014) WEB-DL 1080p Latino gratis en mega.

Amadas Hermanas (2014) WEB-DL 1080p Latino pelicula full hd, Amadas Hermanas (2014) WEB-DL 1080p Latino mega latino, Amadas Hermanas (2014) WEB-DL 1080p Latino 4k latino, Amadas Hermanas (2014) WEB-DL 1080p Latino pelicula completa, Amadas Hermanas (2014) WEB-DL 1080p Latino descargar gratis, descargar Amadas Hermanas (2014) WEB-DL 1080p Latino pelicula latino, Amadas Hermanas (2014) WEB-DL 1080p Latino 1 link mega, Amadas Hermanas (2014) WEB-DL 1080p Latino 1 link google drive, Amadas Hermanas (2014) WEB-DL 1080p Latino hd 1080p latino.
Comentarios 0