×

¿Problemas para descargar con Mozilla, EDGE? Deshabilita la opción "Abrir vinculos en una pestaña nueva" tal como lo muestra ésta imagen.

Alvin y las Ardillas 2 (2009) REMUX 1080p Latino-CMHDD

178 vistas

Información de Alvin y las Ardillas 2 (2009) REMUX 1080p Latino-CMHDD

Datos de la película

  • Calidad: Full 1080p
  • Audio: Español Latino AC3 5.1 BLURAY - Ingles DTS 5.1 BLURAY
  • Subtitulos: Español Latino PGS - Ingles PGS
  • Resolución: 1920x1080p
  • Formato: MKV
  • Codec: H.264
  • Encoder: CinefiloCool
  • Mediainfo: Clic para Mostrar Datos Ver
  • Alvin y las Ardillas 2 (2009) REMUX 1080p Latino-CMHDD.mkv
    Format                      : Matroska
    Format version              : Version 4
    File size                   : 18.2 GiB
    Duration                    : 1 h 28 min
    Overall bit rate mode       : Variable
    Overall bit rate            : 29.4 Mb/s
    Movie name                  : Alvin and the Chipmunks. The Squeakquel (2009) CinemaniaHDD.Net
    Encoded date                : UTC 2023-10-01 21:04:30
    Writing application         : mkvmerge v56.1.0 ('My Friend') 64-bit
    Writing library             : libebml v1.4.2 + libmatroska v1.6.4
    Attachments                 : CINEMANIAHD.png

    Video
    ID                          : 1
    Format                      : AVC
    Format/Info                 : Advanced Video Codec
    Format profile              : High@L4.1
    Format settings             : CABAC / 4 Ref Frames
    Format settings, CABAC      : Yes
    Format settings, Reference  : 4 frames
    Codec ID                    : V_MPEG4/ISO/AVC
    Duration                    : 1 h 28 min
    Bit rate mode               : Variable
    Bit rate                    : 25.3 Mb/s
    Maximum bit rate            : 39.0 Mb/s
    Width                       : 1 920 pixels
    Height                      : 1 080 pixels
    Display aspect ratio        : 16:9
    Frame rate mode             : Constant
    Frame rate                  : 23.976 (24000/1001) FPS
    Color space                 : YUV
    Chroma subsampling          : 4:2:0
    Bit depth                   : 8 bits
    Scan type                   : Progressive
    Bits/(Pixel*Frame)          : 0.509
    Stream size                 : 15.7 GiB (86%)
    Title                       : REMUX HD1080p [CinemaniaHDD]
    Default                     : Yes
    Forced                      : Yes
    Color range                 : Limited
    Color primaries             : BT.709
    Transfer characteristics    : BT.709
    Matrix coefficients         : BT.709

    Audio #1
    ID                          : 2
    Format                      : AC-3
    Format/Info                 : Audio Coding 3
    Commercial name             : Dolby Digital
    Codec ID                    : A_AC3
    Duration                    : 1 h 28 min
    Bit rate mode               : Constant
    Bit rate                    : 448 kb/s
    Channel(s)                  : 6 channels
    Channel layout              : L R C LFE Ls Rs
    Sampling rate               : 48.0 kHz
    Frame rate                  : 31.250 FPS (1536 SPF)
    Compression mode            : Lossy
    Stream size                 : 284 MiB (2%)
    Title                       : Español Latino [CinemaniaHDD]
    Language                    : Spanish
    Service kind                : Complete Main
    Default                     : Yes
    Forced                      : Yes

    Audio #2
    ID                          : 3
    Format                      : DTS XLL
    Format/Info                 : Digital Theater Systems
    Commercial name             : DTS-HD Master Audio
    Codec ID                    : A_DTS
    Duration                    : 1 h 28 min
    Bit rate mode               : Variable
    Bit rate                    : 3 622 kb/s
    Channel(s)                  : 6 channels
    Channel layout              : C L R Ls Rs LFE
    Sampling rate               : 48.0 kHz
    Frame rate                  : 93.750 FPS (512 SPF)
    Bit depth                   : 24 bits
    Compression mode            : Lossless
    Stream size                 : 2.24 GiB (12%)
    Title                       : Ingles [CinemaniaHDD]
    Language                    : English
    Default                     : No
    Forced                      : No

    Text #1
    ID                          : 4
    Format                      : PGS
    Muxing mode                 : zlib
    Codec ID                    : S_HDMV/PGS
    Codec ID/Info               : Picture based subtitle format used on BDs/HD-DVDs
    Duration                    : 1 h 20 min
    Bit rate                    : 307 b/s
    Count of elements           : 22
    Stream size                 : 181 KiB (0%)
    Title                       : Forzados-PGS [CinemaniaHDD]
    Language                    : Spanish
    Default                     : No
    Forced                      : No

    Text #2
    ID                          : 5
    Format                      : PGS
    Muxing mode                 : zlib
    Codec ID                    : S_HDMV/PGS
    Codec ID/Info               : Picture based subtitle format used on BDs/HD-DVDs
    Duration                    : 1 h 27 min
    Bit rate                    : 39.0 kb/s
    Count of elements           : 2426
    Stream size                 : 24.5 MiB (0%)
    Title                       : Español-PGS [CinemaniaHDD]
    Language                    : Spanish
    Default                     : No
    Forced                      : No

    Text #3
    ID                          : 6
    Format                      : PGS
    Muxing mode                 : zlib
    Codec ID                    : S_HDMV/PGS
    Codec ID/Info               : Picture based subtitle format used on BDs/HD-DVDs
    Duration                    : 1 h 27 min
    Bit rate                    : 42.4 kb/s
    Count of elements           : 2392
    Stream size                 : 26.6 MiB (0%)
    Title                       : Ingles [CinemaniaHDD]
    Language                    : English
    Default                     : No
    Forced                      : No

    Text #4
    ID                          : 7
    Format                      : UTF-8
    Codec ID                    : S_TEXT/UTF8
    Codec ID/Info               : UTF-8 Plain Text
    Duration                    : 40 min 4 s
    Bit rate                    : 0 b/s
    Count of elements           : 10
    Stream size                 : 229 Bytes (0%)
    Title                       : Forzados-SRT [CinemaniaHDD]
    Language                    : Spanish
    Default                     : Yes
    Forced                      : Yes

    Text #5
    ID                          : 8
    Format                      : UTF-8
    Codec ID                    : S_TEXT/UTF8
    Codec ID/Info               : UTF-8 Plain Text
    Duration                    : 1 h 27 min
    Bit rate                    : 63 b/s
    Count of elements           : 1212
    Stream size                 : 40.7 KiB (0%)
    Title                       : Español-SRT [CinemaniaHDD]
    Language                    : Spanish
    Default                     : No
    Forced                      : No

    Menu
    00:00:00.000                : Main Titles/Rock On
    00:01:52.237                : Be Careful!
    00:03:11.608                : We're Not Leaving
    00:05:12.938                : It Was an Accident
    00:08:11.533                : Dinner Is Served
    00:11:25.226                : Nightmare
    00:14:18.983                : School Fans
    00:16:20.605                : Meet the Chipettes
    00:21:41.425                : Save Our Program
    00:26:26.001                : Penthouse Suite
    00:28:28.916                : Simply Awesome
    00:31:18.085                : Mr. Cool
    00:35:15.739                : In Love
    00:39:38.626                : Chipette Audition
    00:42:49.484                : Squabbling
    00:44:59.739                : Straight to the Top
    00:48:25.402                : Litter Monitor
    00:54:13.459                : Sports Hero
    00:56:37.519                : Singing Competition
    00:59:06.251                : No Show
    01:02:32.999                : One for All
    01:06:31.946                : Ian's Big Plans
    01:10:49.745                : Alvin to the Rescue
    01:14:49.735                : Toby's Love Song
    01:16:41.055                : We Are Family
    01:20:08.595                : Shake It/End Titles
    01:21:23.587                : Not Tired
    01:22:23.105                : End Titles

  • Peso: 18.2 GiB

Sinopsis

Descargarr Alvin y las Ardillas 2 (2009) REMUX 1080p Latino-CMHDD. Las ardillas más famosas y divertidas del cine regresan a la gran pantalla para protagonizar una nueva aventura. En ella, Alvin y sus compañeros deben enfrentarse a la presión de la escuela, a los problemas de la celebridad y a un grupo de chicas ardilla que les está haciendo la competencia

Ficha técnica

Video trailer de la película

Enlaces de descarga

Rip de Bluray

Descargar Alvin y las Ardillas 2 (2009) REMUX 1080p Latino-CMHDD


Aportes de DPeliculasHDmega la pass es:dpeliculashdmega.org Aportes de CinemaniaHD la pass es:cinemaniahdd.com Aportes recientes:cinemaniahdd.net
Guardado en : Animación , Comedia , Familia , Fantasía , Música , Remux

Películas relacionadas

  • Viviendo con mi ex (2006) REMUX 1080p Latino-CMHDD

    Viviendo con mi ex (2006) REMUX 1080p Latino-CMHDD

    2006
    Viviendo con mi ex (2006) REMUX 1080p Latino-CMHDD

    1h 46m 2006

    Descargar Viviendo con mi ex (2006) REMUX 1080p Latino-CMHDD. Relato sobre las consecuencias de una ruptura...

    Director: Todd Amateau

    Género: Comedia

    Actores: William Dick

  • The Lego Movie (2014) REMUX 4K HDR Latino – CMHDD

    The Lego Movie (2014) REMUX 4K HDR Latino – CMHDD

    2014
    The Lego Movie (2014) REMUX 4K HDR Latino – CMHDD

    1h 40m 2014

    Película basada en los clásicos juguetes LEGO. Emmet, el protagonista de la película, trabaja como...

    Director: Vernessa Cook

    Género: Animación

    Actores: Will Forte

  • The Lego Movie (2014) REMUX 1080p Latino – CMHDD

    The Lego Movie (2014) REMUX 1080p Latino – CMHDD

    2014
    The Lego Movie (2014) REMUX 1080p Latino – CMHDD

    1h 40m 2014

    Película basada en los clásicos juguetes LEGO. Emmet, el protagonista de la película, trabaja como...

    Director: Vernessa Cook

    Género: Animación

    Actores: Will Forte

descargar Alvin y las Ardillas 2 (2009) REMUX 1080p Latino-CMHDD Full 1080p 1080p gratis, Alvin y las Ardillas 2 (2009) REMUX 1080p Latino-CMHDD Full 1080p mega 1 link, Alvin y las Ardillas 2 (2009) REMUX 1080p Latino-CMHDD Full 1080p pelicula completa, descargar Alvin y las Ardillas 2 (2009) REMUX 1080p Latino-CMHDD Full 1080p gratis en mega.

Alvin y las Ardillas 2 (2009) REMUX 1080p Latino-CMHDD pelicula full hd, Alvin y las Ardillas 2 (2009) REMUX 1080p Latino-CMHDD mega latino, Alvin y las Ardillas 2 (2009) REMUX 1080p Latino-CMHDD 4k latino, Alvin y las Ardillas 2 (2009) REMUX 1080p Latino-CMHDD pelicula completa, Alvin y las Ardillas 2 (2009) REMUX 1080p Latino-CMHDD descargar gratis, descargar Alvin y las Ardillas 2 (2009) REMUX 1080p Latino-CMHDD pelicula latino, Alvin y las Ardillas 2 (2009) REMUX 1080p Latino-CMHDD 1 link mega, Alvin y las Ardillas 2 (2009) REMUX 1080p Latino-CMHDD 1 link google drive, Alvin y las Ardillas 2 (2009) REMUX 1080p Latino-CMHDD hd 1080p latino.
Comentarios 0