×

¿Problemas para descargar con Mozilla, EDGE? Deshabilita la opción "Abrir vinculos en una pestaña nueva" tal como lo muestra ésta imagen.

Alvin y las Ardillas 3 (2011) REMUX 1080p Latino-CMHDD

152 vistas

Información de Alvin y las Ardillas 3 (2011) REMUX 1080p Latino-CMHDD

Datos de la película

  • Calidad: Full 1080p
  • Audio: Español Latino AC3 5.1 BLURAY - Ingles DTS 5.1 BLURAY
  • Subtitulos: Español Latino PGS - Ingles PGS
  • Resolución: 1920x1080p
  • Formato: MKV
  • Codec: H.264
  • Encoder: CinefiloCool
  • Mediainfo: Clic para Mostrar Datos Ver
  • Alvin y las Ardillas 3 (2011) REMUX 1080p Latino-CMHDD.mkv
    Format                      : Matroska
    Format version              : Version 4
    File size                   : 19.0 GiB
    Duration                    : 1 h 27 min
    Overall bit rate mode       : Variable
    Overall bit rate            : 31.2 Mb/s
    Movie name                  : Alvin and the Chipmunks. Chipwrecked (2011) CinemaniaHDD.Net
    Encoded date                : UTC 2023-10-01 21:22:39
    Writing application         : mkvmerge v56.1.0 ('My Friend') 64-bit
    Writing library             : libebml v1.4.2 + libmatroska v1.6.4
    Attachments                 : CINEMANIAHD.png

    Video
    ID                          : 1
    Format                      : AVC
    Format/Info                 : Advanced Video Codec
    Format profile              : High@L4.1
    Format settings             : CABAC / 4 Ref Frames
    Format settings, CABAC      : Yes
    Format settings, Reference  : 4 frames
    Codec ID                    : V_MPEG4/ISO/AVC
    Duration                    : 1 h 27 min
    Bit rate mode               : Variable
    Bit rate                    : 26.8 Mb/s
    Maximum bit rate            : 30.0 Mb/s
    Width                       : 1 920 pixels
    Height                      : 1 080 pixels
    Display aspect ratio        : 16:9
    Frame rate mode             : Constant
    Frame rate                  : 23.976 (24000/1001) FPS
    Color space                 : YUV
    Chroma subsampling          : 4:2:0
    Bit depth                   : 8 bits
    Scan type                   : Progressive
    Bits/(Pixel*Frame)          : 0.540
    Stream size                 : 16.4 GiB (86%)
    Title                       : REMUX HD1080p [CinemaniaHDD]
    Default                     : Yes
    Forced                      : Yes

    Audio #1
    ID                          : 2
    Format                      : AC-3
    Format/Info                 : Audio Coding 3
    Commercial name             : Dolby Digital
    Codec ID                    : A_AC3
    Duration                    : 1 h 27 min
    Bit rate mode               : Constant
    Bit rate                    : 448 kb/s
    Channel(s)                  : 6 channels
    Channel layout              : L R C LFE Ls Rs
    Sampling rate               : 48.0 kHz
    Frame rate                  : 31.250 FPS (1536 SPF)
    Compression mode            : Lossy
    Stream size                 : 279 MiB (1%)
    Title                       : Español Latino [CinemaniaHDD]
    Language                    : Spanish
    Service kind                : Complete Main
    Default                     : Yes
    Forced                      : Yes

    Audio #2
    ID                          : 3
    Format                      : DTS XLL
    Format/Info                 : Digital Theater Systems
    Commercial name             : DTS-HD Master Audio
    Codec ID                    : A_DTS
    Duration                    : 1 h 27 min
    Bit rate mode               : Variable
    Bit rate                    : 3 893 kb/s
    Channel(s)                  : 6 channels
    Channel layout              : C L R Ls Rs LFE
    Sampling rate               : 48.0 kHz
    Frame rate                  : 93.750 FPS (512 SPF)
    Bit depth                   : 24 bits
    Compression mode            : Lossless
    Stream size                 : 2.37 GiB (12%)
    Title                       : Ingles [CinemaniaHDD]
    Language                    : English
    Default                     : No
    Forced                      : No

    Text #1
    ID                          : 4
    Format                      : PGS
    Muxing mode                 : zlib
    Codec ID                    : S_HDMV/PGS
    Codec ID/Info               : Picture based subtitle format used on BDs/HD-DVDs
    Duration                    : 1 h 23 min
    Bit rate                    : 389 b/s
    Count of elements           : 26
    Stream size                 : 239 KiB (0%)
    Title                       : Forzados-PGS [CinemaniaHDD]
    Language                    : Spanish
    Default                     : No
    Forced                      : No

    Text #2
    ID                          : 5
    Format                      : PGS
    Muxing mode                 : zlib
    Codec ID                    : S_HDMV/PGS
    Codec ID/Info               : Picture based subtitle format used on BDs/HD-DVDs
    Duration                    : 1 h 26 min
    Bit rate                    : 34.5 kb/s
    Count of elements           : 2322
    Stream size                 : 21.3 MiB (0%)
    Title                       : Español-PGS [CinemaniaHDD]
    Language                    : Spanish
    Default                     : No
    Forced                      : No

    Text #3
    ID                          : 6
    Format                      : PGS
    Muxing mode                 : zlib
    Codec ID                    : S_HDMV/PGS
    Codec ID/Info               : Picture based subtitle format used on BDs/HD-DVDs
    Duration                    : 1 h 25 min
    Bit rate                    : 36.2 kb/s
    Count of elements           : 2312
    Stream size                 : 22.2 MiB (0%)
    Title                       : Ingles [CinemaniaHDD]
    Language                    : English
    Default                     : No
    Forced                      : No

    Text #4
    ID                          : 7
    Format                      : UTF-8
    Codec ID                    : S_TEXT/UTF8
    Codec ID/Info               : UTF-8 Plain Text
    Duration                    : 1 h 13 min
    Bit rate                    : 0 b/s
    Count of elements           : 11
    Stream size                 : 359 Bytes (0%)
    Title                       : Forzados-SRT [CinemaniaHDD]
    Language                    : Spanish
    Default                     : Yes
    Forced                      : Yes

    Text #5
    ID                          : 8
    Format                      : UTF-8
    Codec ID                    : S_TEXT/UTF8
    Codec ID/Info               : UTF-8 Plain Text
    Duration                    : 1 h 23 min
    Bit rate                    : 75 b/s
    Count of elements           : 1476
    Stream size                 : 46.1 KiB (0%)
    Title                       : Español-SRT [CinemaniaHDD]
    Language                    : Spanish
    Default                     : No
    Forced                      : No

    Menu
    00:00:00.000                : Chapter 1
    00:02:21.391                : Chapter 2
    00:04:26.558                : Chapter 3
    00:08:30.135                : Chapter 4
    00:11:43.411                : Chapter 5
    00:13:49.954                : Chapter 6
    00:16:55.556                : Chapter 7
    00:22:45.155                : Chapter 8
    00:24:39.895                : Chapter 9
    00:27:38.991                : Chapter 10
    00:29:19.633                : Chapter 11
    00:31:41.191                : Chapter 12
    00:36:48.164                : Chapter 13
    00:41:45.211                : Chapter 14
    00:45:26.557                : Chapter 15
    00:47:52.995                : Chapter 16
    00:51:58.991                : Chapter 17
    00:55:32.454                : Chapter 18
    00:59:57.052                : Chapter 19
    01:04:05.133                : Chapter 20
    01:06:46.085                : Chapter 21
    01:13:06.716                : Chapter 22
    01:16:08.731                : Chapter 23
    01:18:42.217                : Chapter 24

  • Peso: 19.0 GiB

Sinopsis

Descargar Alvin y las Ardillas 3 (2011) REMUX 1080p Latino-CMHDD. Tercera entrega de la saga Alvin y las ardillas. Las ardillas se embarcan en un crucero de lujo y acaban en una isla desierta, pero pronto averiguarán que no está tan desierta como parece.

Ficha técnica

Video trailer de la película

Enlaces de descarga

Rip de Bluray

Descargar Alvin y las Ardillas 3 (2011) REMUX 1080p Latino-CMHDD


Aportes de DPeliculasHDmega la pass es:dpeliculashdmega.org Aportes de CinemaniaHD la pass es:cinemaniahdd.com Aportes recientes:cinemaniahdd.net
Guardado en : Animación , Comedia , Familia , Fantasía , Música , Remux

Películas relacionadas

  • Telma: La Unicornio (2024) NF WEB-DL 1080p Latino

    Telma: La Unicornio (2024) NF WEB-DL 1080p Latino

    2024
    Telma: La Unicornio (2024) NF WEB-DL 1080p Latino

    1h 33m 2024

    Descargar Telma: La Unicornio (2024) NF WEB-DL 1080p Latino. Una poni cantante que sueña con el estrellato...

    Director: Lynn Wang

    Género: Animación

    Actores: Zach Galifianakis

  • En llamas (2023) REMUX 1080p Latino

    En llamas (2023) REMUX 1080p Latino

    2023
    En llamas (2023) REMUX 1080p Latino

    1h 17m 2023

    Descargar En llamas (2023) REMUX 1080p Latino. Una familia vive en una casa rodante en el bosque y de...

    Director: Peter Facinelli

    Género: Acción

    Actores: Ross McCall

  • Antes de conocernos (2023) HD 1080p Latino

    Antes de conocernos (2023) HD 1080p Latino

    2023
    Antes de conocernos (2023) HD 1080p Latino

    1h 38m 2023

    Descargar Antes de conocernos (2023) HD 1080p Latino. Jane y Will, dos adultos jóvenes, dedican tiempo...

    Director: Peter Hutchings

    Género: Comedia

    Actores: Ward Horton

descargar Alvin y las Ardillas 3 (2011) REMUX 1080p Latino-CMHDD Full 1080p 1080p gratis, Alvin y las Ardillas 3 (2011) REMUX 1080p Latino-CMHDD Full 1080p mega 1 link, Alvin y las Ardillas 3 (2011) REMUX 1080p Latino-CMHDD Full 1080p pelicula completa, descargar Alvin y las Ardillas 3 (2011) REMUX 1080p Latino-CMHDD Full 1080p gratis en mega.

Alvin y las Ardillas 3 (2011) REMUX 1080p Latino-CMHDD pelicula full hd, Alvin y las Ardillas 3 (2011) REMUX 1080p Latino-CMHDD mega latino, Alvin y las Ardillas 3 (2011) REMUX 1080p Latino-CMHDD 4k latino, Alvin y las Ardillas 3 (2011) REMUX 1080p Latino-CMHDD pelicula completa, Alvin y las Ardillas 3 (2011) REMUX 1080p Latino-CMHDD descargar gratis, descargar Alvin y las Ardillas 3 (2011) REMUX 1080p Latino-CMHDD pelicula latino, Alvin y las Ardillas 3 (2011) REMUX 1080p Latino-CMHDD 1 link mega, Alvin y las Ardillas 3 (2011) REMUX 1080p Latino-CMHDD 1 link google drive, Alvin y las Ardillas 3 (2011) REMUX 1080p Latino-CMHDD hd 1080p latino.
Comentarios 0