×

¿Problemas para descargar con Mozilla, EDGE? Deshabilita la opción "Abrir vinculos en una pestaña nueva" tal como lo muestra ésta imagen.

Alucinaciones Del Pasado (2019) WebDL 1080p Latino

199 vistas

Información de Alucinaciones Del Pasado (2019) WebDL 1080p Latino

Datos de la película

  • Calidad: WEBDL
  • Audio: Español Latino AC3 5.1 iTunes - Ingles AC3 5.1 iTunes
  • Subtitulos: Español Latino SRT- FORZADOS SRT
  • Resolución: 1920x804p
  • Formato: MKV
  • Codec: H.264
  • Encoder: CinemaniaHD
  • Mediainfo: Clic para Mostrar Datos Ver
  • Alucinaciones Del Pasado (2019) WebDL 1080p Latino.mkv
    Format                      : Matroska
    Format version              : Version 4
    File size                   : 3.35 GiB
    Duration                    : 1 h 29 min
    Overall bit rate            : 5 359 kb/s
    Movie name                  : Jacob's Ladder (2019) CinemaniaHDD.Net
    Encoded date                : UTC 2021-05-27 01:02:08
    Writing application         : mkvmerge v56.1.0 ('My Friend') 64-bit
    Writing library             : libebml v1.4.2 + libmatroska v1.6.4
    Attachments                 : CINEMANIAHD.png

    Video
    ID                          : 1
    Format                      : AVC
    Format/Info                 : Advanced Video Codec
    Format profile              : High@L4
    Format settings             : CABAC / 5 Ref Frames
    Format settings, CABAC      : Yes
    Format settings, Reference  : 5 frames
    Codec ID                    : V_MPEG4/ISO/AVC
    Duration                    : 1 h 29 min
    Bit rate                    : 4 589 kb/s
    Width                       : 1 920 pixels
    Height                      : 804 pixels
    Display aspect ratio        : 2.40:1
    Frame rate mode             : Constant
    Frame rate                  : 23.976 FPS
    Color space                 : YUV
    Chroma subsampling          : 4:2:0
    Bit depth                   : 8 bits
    Scan type                   : Progressive
    Bits/(Pixel*Frame)          : 0.124
    Stream size                 : 2.87 GiB (86%)
    Title                       : WEB HD1080p [CinemaniaHDD]
    Language                    : English
    Default                     : Yes
    Forced                      : No
    Color range                 : Limited
    Color primaries             : BT.709
    Transfer characteristics    : BT.709
    Matrix coefficients         : BT.709

    Audio #1
    ID                          : 2
    Format                      : AC-3
    Format/Info                 : Audio Coding 3
    Commercial name             : Dolby Digital
    Codec ID                    : A_AC3
    Duration                    : 1 h 29 min
    Bit rate mode               : Constant
    Bit rate                    : 384 kb/s
    Channel(s)                  : 6 channels
    Channel layout              : L R C LFE Ls Rs
    Sampling rate               : 48.0 kHz
    Frame rate                  : 31.250 FPS (1536 SPF)
    Compression mode            : Lossy
    Delay relative to video     : -42 ms
    Stream size                 : 246 MiB (7%)
    Title                       : Español Latino [CinemaniaHDD]
    Language                    : Spanish
    Service kind                : Complete Main
    Default                     : Yes
    Forced                      : No

    Audio #2
    ID                          : 3
    Format                      : AC-3
    Format/Info                 : Audio Coding 3
    Commercial name             : Dolby Digital
    Codec ID                    : A_AC3
    Duration                    : 1 h 29 min
    Bit rate mode               : Constant
    Bit rate                    : 384 kb/s
    Channel(s)                  : 6 channels
    Channel layout              : L R C LFE Ls Rs
    Sampling rate               : 48.0 kHz
    Frame rate                  : 31.250 FPS (1536 SPF)
    Compression mode            : Lossy
    Delay relative to video     : -42 ms
    Stream size                 : 246 MiB (7%)
    Title                       : Ingles [CinemaniaHDD]
    Language                    : English
    Service kind                : Complete Main
    Default                     : No
    Forced                      : No

    Text #1
    ID                          : 4
    Format                      : UTF-8
    Codec ID                    : S_TEXT/UTF8
    Codec ID/Info               : UTF-8 Plain Text
    Duration                    : 1 h 6 min
    Bit rate                    : 0 b/s
    Count of elements           : 12
    Stream size                 : 495 Bytes (0%)
    Title                       : Forzados-SRT [CinemaniaHDD]
    Language                    : Spanish
    Default                     : Yes
    Forced                      : No

    Text #2
    ID                          : 5
    Format                      : UTF-8
    Codec ID                    : S_TEXT/UTF8
    Codec ID/Info               : UTF-8 Plain Text
    Duration                    : 1 h 21 min
    Bit rate                    : 43 b/s
    Count of elements           : 940
    Stream size                 : 26.0 KiB (0%)
    Title                       : Español-SRT [CinemaniaHDD]
    Language                    : Spanish
    Default                     : No
    Forced                      : No

    Text #3
    ID                          : 6
    Format                      : UTF-8
    Codec ID                    : S_TEXT/UTF8
    Codec ID/Info               : UTF-8 Plain Text
    Duration                    : 1 h 19 min
    Bit rate                    : 44 b/s
    Count of elements           : 952
    Stream size                 : 26.2 KiB (0%)
    Title                       : Ingles-SRT [CinemaniaHDD]
    Language                    : English
    Default                     : No
    Forced                      : No

    Menu
    00:00:00.000                : 1
    00:13:03.824                : 2
    00:26:38.429                : 3
    00:40:16.829                : 4
    00:54:34.811                : 5
    01:09:30.454                : 6
    01:23:16.403                : 7

  • Peso: 3.35 GiB

Sinopsis

Descargar Alucinaciones Del Pasado (2019) WebDL 1080p Latino. Tras volver a casa de la Guerra de Vietnam, el veterano Jacob Singer (Jessie Williams) lucha por mantener la cordura. Atormentado por flashbacks y alucinaciones, Singer empieza a perder la cabeza mientras el mundo que le rodea se convierte en algo aterrador. Remake de «La escalera de Jacob», protagonizada por Tim Robbins en 1990.

Ficha técnica

Video trailer de la película

Enlaces de descarga

Rip de Bluray

Descargar Alucinaciones Del Pasado (2019) WebDL 1080p Latino




Aportes de DPeliculasHDmega la pass es:dpeliculashdmega.org Aportes de CinemaniaHD la pass es:cinemaniahdd.com
Guardado en : Misterio , Suspenso , Terror

Películas relacionadas

descargar Alucinaciones Del Pasado (2019) WebDL 1080p Latino WEBDL 1080p gratis, Alucinaciones Del Pasado (2019) WebDL 1080p Latino WEBDL mega 1 link, Alucinaciones Del Pasado (2019) WebDL 1080p Latino WEBDL pelicula completa, descargar Alucinaciones Del Pasado (2019) WebDL 1080p Latino WEBDL gratis en mega.

Alucinaciones Del Pasado (2019) WebDL 1080p Latino pelicula full hd, Alucinaciones Del Pasado (2019) WebDL 1080p Latino mega latino, Alucinaciones Del Pasado (2019) WebDL 1080p Latino 4k latino, Alucinaciones Del Pasado (2019) WebDL 1080p Latino pelicula completa, Alucinaciones Del Pasado (2019) WebDL 1080p Latino descargar gratis, descargar Alucinaciones Del Pasado (2019) WebDL 1080p Latino pelicula latino, Alucinaciones Del Pasado (2019) WebDL 1080p Latino 1 link mega, Alucinaciones Del Pasado (2019) WebDL 1080p Latino 1 link google drive, Alucinaciones Del Pasado (2019) WebDL 1080p Latino hd 1080p latino.
Comentarios 0