Alpha (2018) Full 1080p Latino

2.694 vistas
1 estrella2 estrellas3 estrellas4 estrellas5 estrellas (9 votos, promedio: 4,56 de 5)
Cargando…

Información de Alpha (2018) Full 1080p Latino

Datos de la película

  • Calidad: Full 1080p
  • Audio: Español Latino AC3 5.1 DVD - Ingles DTS 5.1 BLURAY
  • Subtitulos: Español Latino SRT- FORZADOS SRT
  • Resolución: 1920x1080p
  • Formato: MKV
  • Codec: H.264
  • Encoder: Dracarys
  • Mediainfo: Clic para Mostrar Datos Ver
  • Format                                   : Matroska
    Format version                           : Version 4 / Version 2
    File size                                : 3.64 GiB
    Duration                                 : 1 h 36 min
    Overall bit rate                         : 5 400 kb/s
    Movie name                               : CinemaniaHDD.net
    Encoded date                             : UTC 2018-11-25 01:38:26 / UTC 2018-11-24T01:42:52Z
    Writing application                      : mkvmerge v15.0.0 ('Duel with the Devil') 64-bit
    Writing library                          : libebml v1.3.5 + libmatroska v1.4.5 / Lavf57.7.2

    Video
    ID                                       : 1
    Format                                   : AVC
    Format/Info                              : Advanced Video Codec
    Format profile                           : High@L4.1
    Format settings                          : CABAC / 4 Ref Frames
    Format settings, CABAC                   : Yes
    Format settings, RefFrames               : 4 frames
    Codec ID                                 : V_MPEG4/ISO/AVC
    Duration                                 : 1 h 36 min
    Bit rate                                 : 3 336 kb/s
    Width                                    : 1 920 pixels
    Height                                   : 1 080 pixels
    Display aspect ratio                     : 16:9
    Frame rate mode                          : Constant
    Frame rate                               : 23.976 (24000/1001) FPS
    Color space                              : YUV
    Chroma subsampling                       : 4:2:0
    Bit depth                                : 8 bits
    Scan type                                : Progressive
    Bits/(Pixel*Frame)                       : 0.067
    Stream size                              : 2.25 GiB (62%)
    Writing library                          : x264 core 148 r2708 86b7198
    Encoding settings                        : cabac=1 / ref=4 / deblock=1:0:0 / analyse=0x3:0x133 / me=esa / subme=10 / psy=1 / psy_rd=1.00:0.00 / mixed_ref=1 / me_range=24 / chroma_me=1 / trellis=2 / 8x8dct=1 / cqm=0 / deadzone=21,11 / fast_pskip=1 / chroma_qp_offset=-2 / threads=34 / lookahead_threads=5 / sliced_threads=0 / nr=0 / decimate=1 / interlaced=0 / bluray_compat=0 / constrained_intra=0 / bframes=8 / b_pyramid=2 / b_adapt=2 / b_bias=0 / direct=3 / weightb=1 / open_gop=0 / weightp=2 / keyint=240 / keyint_min=24 / scenecut=40 / intra_refresh=0 / rc_lookahead=60 / rc=crf / mbtree=1 / crf=20.0 / qcomp=0.60 / qpmin=0 / qpmax=69 / qpstep=4 / vbv_maxrate=62500 / vbv_bufsize=78125 / crf_max=0.0 / nal_hrd=none / filler=0 / ip_ratio=1.40 / aq=1:1.00
    Language                                 : English
    Default                                  : Yes
    Forced                                   : No
    Color range                              : Limited
    Color primaries                          : BT.709
    Transfer characteristics                 : BT.709
    Matrix coefficients                      : BT.709
    Statistics Tags Issue                    : mkvmerge v15.0.0 ('Duel with the Devil') 64-bit 2018-11-25 01:38:26 / mkvmerge v15.0.0 ('Duel with the Devil') 64-bit 2018-11-25 01:38:26 / UTC 2018-11-24T01:42:52Z
    FromStats_BitRate                        : 3440735
    FromStats_Duration                       : 01:36:30.994000000
    FromStats_FrameCount                     : 138845
    FromStats_StreamSize                     : 2490659567

    Audio #1
    ID                                       : 2
    Format                                   : AC-3
    Format/Info                              : Audio Coding 3
    Format settings, Endianness              : Big
    Codec ID                                 : A_AC3
    Duration                                 : 1 h 36 min
    Bit rate mode                            : Constant
    Bit rate                                 : 448 kb/s
    Channel(s)                               : 6 channels
    Channel positions                        : Front: L C R, Side: L R, LFE
    Sampling rate                            : 48.0 kHz
    Frame rate                               : 31.250 FPS (1536 SPF)
    Bit depth                                : 16 bits
    Compression mode                         : Lossy
    Stream size                              : 309 MiB (8%)
    Language                                 : Spanish
    Service kind                             : Complete Main
    Default                                  : Yes
    Forced                                   : No
    Statistics Tags Issue                    : mkvmerge v15.0.0 ('Duel with the Devil') 64-bit 2018-11-25 01:38:26 / mkvmerge v15.0.0 ('Duel with the Devil') 64-bit 2018-11-25 01:38:26 / UTC 2018-11-24T01:42:52Z
    FromStats_BitRate                        : 448000
    FromStats_Duration                       : 01:36:30.464000000
    FromStats_FrameCount                     : 180952
    FromStats_StreamSize                     : 324265984

    Audio #2
    ID                                       : 3
    Format                                   : DTS
    Format/Info                              : Digital Theater Systems
    Mode                                     : 16
    Format settings, Endianness              : Big
    Codec ID                                 : A_DTS
    Duration                                 : 1 h 36 min
    Bit rate mode                            : Constant
    Bit rate                                 : 1 509 kb/s
    Channel(s)                               : 6 channels
    Channel positions                        : Front: L C R, Side: L R, LFE
    Sampling rate                            : 48.0 kHz
    Frame rate                               : 93.750 FPS (512 SPF)
    Bit depth                                : 16 bits
    Compression mode                         : Lossy
    Stream size                              : 1.02 GiB (28%)
    Language                                 : English
    Default                                  : No
    Forced                                   : No
    Statistics Tags Issue                    : mkvmerge v15.0.0 ('Duel with the Devil') 64-bit 2018-11-25 01:38:26 / mkvmerge v15.0.0 ('Duel with the Devil') 64-bit 2018-11-25 01:38:26 / UTC 2018-11-24T01:42:52Z
    FromStats_BitRate                        : 1508999
    FromStats_Duration                       : 01:36:30.998000000
    FromStats_FrameCount                     : 542906
    FromStats_StreamSize                     : 1092326872

    Text
    ID                                       : 4
    Format                                   : UTF-8
    Codec ID                                 : S_TEXT/UTF8
    Codec ID/Info                            : UTF-8 Plain Text
    Language                                 : Spanish
    Default                                  : No
    Forced                                   : No
    Statistics Tags Issue                    : mkvmerge v15.0.0 ('Duel with the Devil') 64-bit 2018-11-25 01:38:26 / mkvmerge v15.0.0 ('Duel with the Devil') 64-bit 2018-11-25 01:38:26 / UTC 2018-11-24T01:42:52Z
    FromStats_BitRate                        : 8
    FromStats_Duration                       : 01:28:34.856000000
    FromStats_FrameCount                     : 230
    FromStats_StreamSize                     : 5321

    Menu
    00:00:00.000                             : :Chapter 1
    00:07:44.714                             : :Chapter 2
    00:10:57.073                             : :Chapter 3
    00:16:57.642                             : :Chapter 4
    00:21:44.303                             : :Chapter 5
    00:25:55.971                             : :Chapter 6
    00:32:37.622                             : :Chapter 7
    00:38:20.298                             : :Chapter 8
    00:42:38.431                             : :Chapter 9
    00:47:55.373                             : :Chapter 10
    00:54:08.454                             : :Chapter 11
    00:59:28.273                             : :Chapter 12
    01:07:10.026                             : :Chapter 13
    01:14:09.779                             : :Chapter 14
    01:18:57.358                             : :Chapter 15
    01:25:43.388                             : :Chapter 16

     

  • Peso: 3.64 GiB

Sinopsis

Alpha es una aventura épica ambientada en la última Edad de Hielo. Europa, 20.000 años atrás. En mitad de su primera cacería con el grupo de élite de su tribu, un joven es herido y dado por muerto. Al despertar se encontrará débil y solo, y deberá aprender a sobrevivir y abrirse camino ante la dura y cruel naturaleza. Acompañado a regañadientes de un lobo abandonado por su manada, los dos aprenderán a confiar el uno en el otro, convertirse en aliados y superar los innumerables peligros para, contra toda posibilidad, encontrar el camino a casa antes de que llegue el letal invierno.

Ficha técnica

Video trailer de la película

Enlaces de descarga

Rip de Bluray

Descargar Alpha (2018) Full 1080p Latino




Aportes de DPeliculasHDmega la pass es:dpeliculashdmega.org Aportes de CinemaniaHD la pass es:cinemaniahdd.com

Películas relacionadas

  • El Depredador (2018) Full 1080p Latino ( PLACEBO)

    2018
    El Depredador (2018) Full 1080p Latino ( PLACEBO)

    5.0 1h 41m 2018

    El Depredador  Full HD Latino Torrent Cuando el pequeño Rory (Jacob Tremblay) activa accidentalmente...

    Director: Shane Black

    Género: Acción

    Actores: Yvonne Strahovski

  • Blood Brother (2018) WEBDL 1080p Latino

    2018
    Blood Brother (2018) WEBDL 1080p Latino

    0.0 1h 30m 2018

    El hermano de sangre se desarrolla en las calles de una ciudad en decadencia, donde un convicto recientemente...

    Director: John Pogue

    Género: Acción

    Actores: Trey Songz

  • Duro de matar 4.0 (2007) Full 1080p Latino

    2007
    Duro de matar 4.0 (2007) Full 1080p Latino

    5.0 2h 8m 2007

    En Estados Unidos, la infraestructura de ordenadores que controla todo tipo de comunicaciones, transportes...

    Director: Len Wiseman

    Género: Acción

    Actores: Zeljko Ivanek

Comentarios 0