×

¿Problemas para descargar con Mozilla, EDGE? Deshabilita la opción "Abrir vinculos en una pestaña nueva" tal como lo muestra ésta imagen.

Allí Me Encontrarás (2021) REMUX 1080p Latino

162 vistas

Información de Allí Me Encontrarás (2021) REMUX 1080p Latino

Datos de la película

  • Calidad: Full 1080p
  • Audio: Español Latino AC3 5.1 WEB-DL - Ingles DTS 5.1 BLURAY
  • Subtitulos: Español Latino PGS - Ingles PGS
  • Resolución: 1920x1080p
  • Formato: MKV
  • Codec: H.264
  • Encoder: Melkor
  • Mediainfo: Clic para Mostrar Datos Ver
  • Alli Me encontraras (2021) REMUX 1080p Latino.mkv
    Format                      : Matroska
    Format version              : Version 4
    File size                   : 19.9 GiB
    Duration                    : 1 h 59 min
    Overall bit rate mode       : Variable
    Overall bit rate            : 23.9 Mb/s
    Movie name                  : Finding You (2021) CinemaniaHDD.Net
    Encoded date                : UTC 2022-03-05 08:16:01
    Writing application         : mkvmerge v56.1.0 ('My Friend') 64-bit
    Writing library             : libebml v1.4.2 + libmatroska v1.6.4
    Attachments                 : CINEMANIAHD.png

    Video
    ID                          : 1
    Format                      : AVC
    Format/Info                 : Advanced Video Codec
    Format profile              : High@L4.1
    Format settings             : CABAC / 4 Ref Frames
    Format settings, CABAC      : Yes
    Format settings, Reference  : 4 frames
    Codec ID                    : V_MPEG4/ISO/AVC
    Duration                    : 1 h 59 min
    Bit rate mode               : Variable
    Bit rate                    : 19.9 Mb/s
    Maximum bit rate            : 35.0 Mb/s
    Width                       : 1 920 pixels
    Height                      : 1 080 pixels
    Display aspect ratio        : 16:9
    Frame rate mode             : Constant
    Frame rate                  : 23.976 (24000/1001) FPS
    Standard                    : NTSC
    Color space                 : YUV
    Chroma subsampling          : 4:2:0
    Bit depth                   : 8 bits
    Scan type                   : Progressive
    Bits/(Pixel*Frame)          : 0.401
    Stream size                 : 16.6 GiB (84%)
    Title                       : REMUX HD1080p [CinemaniaHDD]
    Language                    : English
    Default                     : Yes
    Forced                      : Yes
    Color range                 : Limited
    Color primaries             : BT.709
    Transfer characteristics    : BT.709
    Matrix coefficients         : BT.709

    Audio #1
    ID                          : 2
    Format                      : AC-3
    Format/Info                 : Audio Coding 3
    Commercial name             : Dolby Digital
    Codec ID                    : A_AC3
    Duration                    : 1 h 59 min
    Bit rate mode               : Constant
    Bit rate                    : 384 kb/s
    Channel(s)                  : 6 channels
    Channel layout              : L R C LFE Ls Rs
    Sampling rate               : 48.0 kHz
    Frame rate                  : 31.250 FPS (1536 SPF)
    Compression mode            : Lossy
    Stream size                 : 328 MiB (2%)
    Title                       : Español Latino [CinemaniaHDD]
    Language                    : Spanish
    Service kind                : Complete Main
    Default                     : Yes
    Forced                      : Yes

    Audio #2
    ID                          : 3
    Format                      : DTS XLL
    Format/Info                 : Digital Theater Systems
    Commercial name             : DTS-HD Master Audio
    Codec ID                    : A_DTS
    Duration                    : 1 h 59 min
    Bit rate mode               : Variable
    Bit rate                    : 3 504 kb/s
    Channel(s)                  : 6 channels
    Channel layout              : C L R Ls Rs LFE
    Sampling rate               : 48.0 kHz
    Frame rate                  : 93.750 FPS (512 SPF)
    Bit depth                   : 24 bits
    Compression mode            : Lossless
    Stream size                 : 2.92 GiB (15%)
    Title                       : Ingles [CinemaniaHDD]
    Language                    : English
    Default                     : No
    Forced                      : No

    Text #1
    ID                          : 4
    Format                      : PGS
    Muxing mode                 : zlib
    Codec ID                    : S_HDMV/PGS
    Codec ID/Info               : Picture based subtitle format used on BDs/HD-DVDs
    Duration                    : 1 h 58 min
    Bit rate                    : 35.7 kb/s
    Count of elements           : 3364
    Stream size                 : 30.3 MiB (0%)
    Title                       : Español-PGS [CinemaniaHDD]
    Language                    : Spanish
    Default                     : No
    Forced                      : No

    Text #2
    ID                          : 5
    Format                      : PGS
    Muxing mode                 : zlib
    Codec ID                    : S_HDMV/PGS
    Codec ID/Info               : Picture based subtitle format used on BDs/HD-DVDs
    Duration                    : 1 h 59 min
    Bit rate                    : 46.1 kb/s
    Count of elements           : 2802
    Stream size                 : 39.3 MiB (0%)
    Title                       : Ingles-PGS [CinemaniaHDD]
    Language                    : English
    Default                     : No
    Forced                      : No

    Text #3
    ID                          : 6
    Format                      : UTF-8
    Codec ID                    : S_TEXT/UTF8
    Codec ID/Info               : UTF-8 Plain Text
    Duration                    : 1 h 52 min
    Bit rate                    : 0 b/s
    Count of elements           : 17
    Stream size                 : 371 Bytes (0%)
    Title                       : Forzados-SRT [CinemaniaHDD]
    Language                    : Spanish
    Default                     : Yes
    Forced                      : Yes

    Text #4
    ID                          : 7
    Format                      : UTF-8
    Codec ID                    : S_TEXT/UTF8
    Codec ID/Info               : UTF-8 Plain Text
    Duration                    : 1 h 57 min
    Bit rate                    : 61 b/s
    Count of elements           : 1491
    Stream size                 : 53.2 KiB (0%)
    Title                       : Español-SRT [CinemaniaHDD]
    Language                    : Spanish
    Default                     : No
    Forced                      : No

    Menu
    00:00:00.000                : Year Abroad
    00:10:19.619                : B&B
    00:17:55.074                : Amazing Brother
    00:26:18.577                : Visitors
    00:35:24.122                : Cross
    00:42:40.558                : Building an Empire
    00:49:53.991                : Irish Fun
    00:57:27.444                : Tour Guide
    01:03:36.813                : The Fiddle
    01:11:58.314                : No Control
    01:20:31.827                : Puppet
    01:24:32.067                : Trust
    01:29:23.358                : Sorrow & Joy
    01:38:05.880                : Linked
    01:46:28.382                : Just in Time
    01:55:10.904                : End Credits

  • Peso: 19.9 GiB

Sinopsis

Descargar Allí Me Encontrarás (2021) REMUX 1080p Latino. Finley, una talentosa y aspirante a violinista, conoce a Beckett, una famosa joven estrella de cine, de camino a su programa de semestre universitario en el extranjero en un pequeño pueblo costero de Irlanda. Un romance inesperado surge cuando el rompecorazones Beckett conduce al tenso Finley a un despertar aventurero, y ella lo anima a hacerse cargo de su futuro, hasta que las presiones de su estrellato se interponen en el camino.

Ficha técnica

  • Titulo original: Finding You
  • Fecha de lanzamiento: 13-05-2021 (United States of America)
  • Director: Brian Baugh
  • Género: Drama, Remux, Romance

Video trailer de la película

Enlaces de descarga

Rip de Bluray

Descargar Allí Me Encontrarás (2021) REMUX 1080p Latino




Aportes de DPeliculasHDmega la pass es:dpeliculashdmega.org Aportes de CinemaniaHD la pass es:cinemaniahdd.com
Guardado en : Drama , Remux , Romance

Películas relacionadas

descargar Allí Me Encontrarás (2021) REMUX 1080p Latino Full 1080p 1080p gratis, Allí Me Encontrarás (2021) REMUX 1080p Latino Full 1080p mega 1 link, Allí Me Encontrarás (2021) REMUX 1080p Latino Full 1080p pelicula completa, descargar Allí Me Encontrarás (2021) REMUX 1080p Latino Full 1080p gratis en mega.

Allí Me Encontrarás (2021) REMUX 1080p Latino pelicula full hd, Allí Me Encontrarás (2021) REMUX 1080p Latino mega latino, Allí Me Encontrarás (2021) REMUX 1080p Latino 4k latino, Allí Me Encontrarás (2021) REMUX 1080p Latino pelicula completa, Allí Me Encontrarás (2021) REMUX 1080p Latino descargar gratis, descargar Allí Me Encontrarás (2021) REMUX 1080p Latino pelicula latino, Allí Me Encontrarás (2021) REMUX 1080p Latino 1 link mega, Allí Me Encontrarás (2021) REMUX 1080p Latino 1 link google drive, Allí Me Encontrarás (2021) REMUX 1080p Latino hd 1080p latino.
Comentarios 0