×

¿Problemas para descargar con Mozilla, EDGE? Deshabilita la opción "Abrir vinculos en una pestaña nueva" tal como lo muestra ésta imagen.

Allí Me Encontrarás (2021) HD 1080p Latino

330 vistas

Información de Allí Me Encontrarás (2021) HD 1080p Latino

Datos de la película

  • Calidad: 1080p
  • Audio: Español Latino AC3 5.1 WEB-DL - Ingles AC3 5.1 BLURAY
  • Subtitulos: Español Latino SRT- FORZADOS SRT
  • Resolución: 1920x804p
  • Formato: MKV
  • Codec: H.264
  • Encoder: Melkor
  • Mediainfo: Clic para Mostrar Datos Ver
  • Alli Me encontraras (2021) HD 1080p Latino.mkv
    Format                      : Matroska
    Format version              : Version 4
    File size                   : 3.56 GiB
    Duration                    : 1 h 59 min
    Overall bit rate            : 4 262 kb/s
    Movie name                  : Finding You (2021) CinemaniaHDD.Net
    Encoded date                : UTC 2022-03-07 03:14:00
    Writing application         : mkvmerge v56.1.0 ('My Friend') 64-bit
    Writing library             : libebml v1.4.2 + libmatroska v1.6.4
    Attachments                 : CINEMANIAHD.png

    Video
    ID                          : 1
    Format                      : AVC
    Format/Info                 : Advanced Video Codec
    Format profile              : High@L4.1
    Format settings             : CABAC / 5 Ref Frames
    Format settings, CABAC      : Yes
    Format settings, Reference  : 5 frames
    Codec ID                    : V_MPEG4/ISO/AVC
    Duration                    : 1 h 59 min
    Bit rate                    : 3 500 kb/s
    Width                       : 1 920 pixels
    Height                      : 804 pixels
    Display aspect ratio        : 2.40:1
    Frame rate mode             : Constant
    Frame rate                  : 23.976 (24000/1001) FPS
    Color space                 : YUV
    Chroma subsampling          : 4:2:0
    Bit depth                   : 8 bits
    Scan type                   : Progressive
    Bits/(Pixel*Frame)          : 0.095
    Stream size                 : 2.86 GiB (80%)
    Title                       : HD1080p [CinemaniaHDD]
    Writing library             : x264 core 163 r3059 b684ebe0
    Encoding settings           : cabac=1 / ref=5 / deblock=1:-1:-1 / analyse=0x3:0x133 / me=umh / subme=9 / psy=1 / psy_rd=1.00:0.15 / mixed_ref=1 / me_range=16 / chroma_me=1 / trellis=2 / 8x8dct=1 / cqm=0 / deadzone=21,11 / fast_pskip=1 / chroma_qp_offset=-3 / threads=24 / lookahead_threads=2 / sliced_threads=0 / nr=0 / decimate=1 / interlaced=0 / bluray_compat=0 / constrained_intra=0 / bframes=3 / b_pyramid=2 / b_adapt=2 / b_bias=0 / direct=3 / weightb=1 / open_gop=0 / weightp=2 / keyint=240 / keyint_min=24 / scenecut=40 / intra_refresh=0 / rc_lookahead=60 / rc=abr / mbtree=1 / bitrate=3500 / ratetol=1.0 / qcomp=0.60 / qpmin=0 / qpmax=69 / qpstep=4 / vbv_maxrate=62500 / vbv_bufsize=78125 / nal_hrd=none / filler=0 / ip_ratio=1.40 / aq=1:1.00
    Default                     : Yes
    Forced                      : Yes
    Color range                 : Limited
    Color primaries             : BT.709
    Transfer characteristics    : BT.709
    Matrix coefficients         : BT.709

    Audio #1
    ID                          : 2
    Format                      : AC-3
    Format/Info                 : Audio Coding 3
    Commercial name             : Dolby Digital
    Codec ID                    : A_AC3
    Duration                    : 1 h 59 min
    Bit rate mode               : Constant
    Bit rate                    : 384 kb/s
    Channel(s)                  : 6 channels
    Channel layout              : L R C LFE Ls Rs
    Sampling rate               : 48.0 kHz
    Frame rate                  : 31.250 FPS (1536 SPF)
    Compression mode            : Lossy
    Delay relative to video     : -5 ms
    Stream size                 : 328 MiB (9%)
    Title                       : Español Latino [CinemaniaHDD]
    Language                    : Spanish
    Service kind                : Complete Main
    Default                     : Yes
    Forced                      : Yes

    Audio #2
    ID                          : 3
    Format                      : AC-3
    Format/Info                 : Audio Coding 3
    Commercial name             : Dolby Digital
    Codec ID                    : A_AC3
    Duration                    : 1 h 59 min
    Bit rate mode               : Constant
    Bit rate                    : 448 kb/s
    Channel(s)                  : 6 channels
    Channel layout              : L R C LFE Ls Rs
    Sampling rate               : 48.0 kHz
    Frame rate                  : 31.250 FPS (1536 SPF)
    Compression mode            : Lossy
    Delay relative to video     : -5 ms
    Stream size                 : 383 MiB (11%)
    Title                       : Ingles [CinemaniaHDD]
    Language                    : English
    Service kind                : Complete Main
    Default                     : No
    Forced                      : No

    Text #1
    ID                          : 4
    Format                      : UTF-8
    Codec ID                    : S_TEXT/UTF8
    Codec ID/Info               : UTF-8 Plain Text
    Duration                    : 1 h 52 min
    Bit rate                    : 0 b/s
    Count of elements           : 17
    Stream size                 : 371 Bytes (0%)
    Title                       : Forzados-SRT [CinemaniaHDD]
    Language                    : Spanish
    Default                     : Yes
    Forced                      : Yes

    Text #2
    ID                          : 5
    Format                      : UTF-8
    Codec ID                    : S_TEXT/UTF8
    Codec ID/Info               : UTF-8 Plain Text
    Duration                    : 1 h 57 min
    Bit rate                    : 61 b/s
    Count of elements           : 1491
    Stream size                 : 53.2 KiB (0%)
    Title                       : Español-SRT [CinemaniaHDD]
    Language                    : Spanish
    Default                     : No
    Forced                      : No

    Menu
    00:00:00.000                : Year Abroad
    00:10:19.619                : B&B
    00:17:55.074                : Amazing Brother
    00:26:18.577                : Visitors
    00:35:24.122                : Cross
    00:42:40.558                : Building an Empire
    00:49:53.991                : Irish Fun
    00:57:27.444                : Tour Guide
    01:03:36.813                : The Fiddle
    01:11:58.314                : No Control
    01:20:31.827                : Puppet
    01:24:32.067                : Trust
    01:29:23.358                : Sorrow & Joy
    01:38:05.880                : Linked
    01:46:28.382                : Just in Time
    01:55:10.904                : End Credits

  • Peso: 3.56 GiB

Sinopsis

Descargar Allí Me Encontrarás (2021) HD 1080p Latino. Finley, una talentosa y aspirante a violinista, conoce a Beckett, una famosa joven estrella de cine, de camino a su programa de semestre universitario en el extranjero en un pequeño pueblo costero de Irlanda. Un romance inesperado surge cuando el rompecorazones Beckett conduce al tenso Finley a un despertar aventurero, y ella lo anima a hacerse cargo de su futuro, hasta que las presiones de su estrellato se interponen en el camino.

Ficha técnica

Video trailer de la película

Enlaces de descarga

Rip de Bluray

Descargar Allí Me Encontrarás (2021) HD 1080p Latino




Aportes de DPeliculasHDmega la pass es:dpeliculashdmega.org Aportes de CinemaniaHD la pass es:cinemaniahdd.com
Guardado en : Drama , HD 1080p , Romance

Películas relacionadas

descargar Allí Me Encontrarás (2021) HD 1080p Latino 1080p 1080p gratis, Allí Me Encontrarás (2021) HD 1080p Latino 1080p mega 1 link, Allí Me Encontrarás (2021) HD 1080p Latino 1080p pelicula completa, descargar Allí Me Encontrarás (2021) HD 1080p Latino 1080p gratis en mega.

Allí Me Encontrarás (2021) HD 1080p Latino pelicula full hd, Allí Me Encontrarás (2021) HD 1080p Latino mega latino, Allí Me Encontrarás (2021) HD 1080p Latino 4k latino, Allí Me Encontrarás (2021) HD 1080p Latino pelicula completa, Allí Me Encontrarás (2021) HD 1080p Latino descargar gratis, descargar Allí Me Encontrarás (2021) HD 1080p Latino pelicula latino, Allí Me Encontrarás (2021) HD 1080p Latino 1 link mega, Allí Me Encontrarás (2021) HD 1080p Latino 1 link google drive, Allí Me Encontrarás (2021) HD 1080p Latino hd 1080p latino.
Comentarios 0