×

¿Problemas para descargar con Mozilla, EDGE? Deshabilita la opción "Abrir vinculos en una pestaña nueva" tal como lo muestra ésta imagen.

All the Old Knives (2022) AMZN WEB-DL 1080p Latino

622 vistas

Información de All the Old Knives (2022) AMZN WEB-DL 1080p Latino

Datos de la película

  • Calidad: 1080p
  • Audio: Español Latino AC3 5.1 WEB-DL - Ingles AC3 5.1 WEB-DL
  • Subtitulos: Español Latino SRT- FORZADOS SRT
  • Resolución: 1920x1080
  • Formato: MKV
  • Codec: H.264
  • Encoder: cinemaniahdd
  • Mediainfo: Clic para Mostrar Datos Ver
  • All The Old Knives (2022) AMZN WEB-DL 1080p Latino [CNMNHDD].mkv
    Format                      : Matroska
    Format version              : Version 4
    File size                   : 4.62 GiB
    Duration                    : 1 h 42 min
    Overall bit rate            : 6 458 kb/s
    Movie name                  : All The Old Knives [1080p] [CNMNHDD]
    Encoded date                : UTC 2022-04-08 00:24:37
    Writing application         : mkvmerge v56.1.0 ('My Friend') 64-bit
    Writing library             : libebml v1.4.2 + libmatroska v1.6.4

    Video
    ID                          : 1
    Format                      : AVC
    Format/Info                 : Advanced Video Codec
    Format profile              : High@L4
    Format settings             : CABAC / 4 Ref Frames
    Format settings, CABAC      : Yes
    Format settings, Reference  : 4 frames
    Codec ID                    : V_MPEG4/ISO/AVC
    Duration                    : 1 h 42 min
    Bit rate mode               : Constant
    Bit rate                    : 4 535 kb/s
    Nominal bit rate            : 10 000 kb/s
    Width                       : 1 920 pixels
    Height                      : 800 pixels
    Display aspect ratio        : 2.40:1
    Frame rate mode             : Constant
    Frame rate                  : 23.976 (24000/1001) FPS
    Color space                 : YUV
    Chroma subsampling          : 4:2:0
    Bit depth                   : 8 bits
    Scan type                   : Progressive
    Bits/(Pixel*Frame)          : 0.123
    Stream size                 : 3.25 GiB (70%)
    Title                       : CinemaniaHDD
    Default                     : Yes
    Forced                      : No
    Color range                 : Limited
    Color primaries             : BT.709
    Transfer characteristics    : BT.709
    Matrix coefficients         : BT.709

    Audio #1
    ID                          : 2
    Format                      : AC-3
    Format/Info                 : Audio Coding 3
    Commercial name             : Dolby Digital
    Codec ID                    : A_AC3
    Duration                    : 1 h 42 min
    Bit rate mode               : Constant
    Bit rate                    : 640 kb/s
    Channel(s)                  : 6 channels
    Channel layout              : L R C LFE Ls Rs
    Sampling rate               : 48.0 kHz
    Frame rate                  : 31.250 FPS (1536 SPF)
    Compression mode            : Lossy
    Stream size                 : 469 MiB (10%)
    Title                       : Español latino [CinemaniaHDD]
    Language                    : Spanish
    Service kind                : Complete Main
    Default                     : Yes
    Forced                      : No

    Audio #2
    ID                          : 3
    Format                      : E-AC-3
    Format/Info                 : Enhanced AC-3
    Commercial name             : Dolby Digital Plus
    Codec ID                    : A_EAC3
    Duration                    : 1 h 42 min
    Bit rate mode               : Constant
    Bit rate                    : 640 kb/s
    Channel(s)                  : 6 channels
    Channel layout              : L R C LFE Ls Rs
    Sampling rate               : 48.0 kHz
    Frame rate                  : 31.250 FPS (1536 SPF)
    Compression mode            : Lossy
    Stream size                 : 469 MiB (10%)
    Title                       : Español latino / E-AC3 [CinemaniaHDD]
    Language                    : Spanish
    Service kind                : Complete Main
    Default                     : No
    Forced                      : No

    Audio #3
    ID                          : 4
    Format                      : E-AC-3
    Format/Info                 : Enhanced AC-3
    Commercial name             : Dolby Digital Plus
    Codec ID                    : A_EAC3
    Duration                    : 1 h 42 min
    Bit rate mode               : Constant
    Bit rate                    : 640 kb/s
    Channel(s)                  : 6 channels
    Channel layout              : L R C LFE Ls Rs
    Sampling rate               : 48.0 kHz
    Frame rate                  : 31.250 FPS (1536 SPF)
    Compression mode            : Lossy
    Stream size                 : 469 MiB (10%)
    Title                       : Inglés [CinemaniaHDD]
    Language                    : English
    Service kind                : Complete Main
    Default                     : No
    Forced                      : No

    Text #1
    ID                          : 5
    Format                      : UTF-8
    Codec ID                    : S_TEXT/UTF8
    Codec ID/Info               : UTF-8 Plain Text
    Duration                    : 1 h 24 min
    Bit rate                    : 2 b/s
    Count of elements           : 45
    Stream size                 : 1.28 KiB (0%)
    Title                       : Forzados [CinemaniaHDD]
    Language                    : Spanish
    Default                     : Yes
    Forced                      : Yes

    Text #2
    ID                          : 6
    Format                      : UTF-8
    Codec ID                    : S_TEXT/UTF8
    Codec ID/Info               : UTF-8 Plain Text
    Duration                    : 1 h 40 min
    Bit rate                    : 43 b/s
    Count of elements           : 1037
    Stream size                 : 31.8 KiB (0%)
    Title                       : Español latino [CinemaniaHDD]
    Language                    : Spanish
    Default                     : No
    Forced                      : No

    Menu
    00:00:00.000                : Amazon Studios
    00:00:21.000                : Scene 2
    00:02:53.000                : Scene 3
    00:06:48.000                : Scene 4
    00:10:06.000                : Scene 5
    00:15:40.000                : Scene 6
    00:21:16.000                : Scene 7
    00:24:54.000                : Scene 8
    00:28:49.000                : Scene 9
    00:33:42.000                : Scene 10
    00:36:20.000                : Scene 11
    00:40:01.000                : Scene 12
    00:46:39.000                : Scene 13
    00:50:56.000                : Scene 14
    00:53:22.000                : Scene 15
    01:00:52.000                : Scene 16
    01:02:45.000                : Scene 17
    01:10:37.000                : Scene 18
    01:15:31.000                : Scene 19
    01:17:12.000                : Scene 20
    01:20:46.000                : Scene 21
    01:24:16.000                : Scene 22
    01:33:20.000                : Scene 23
    01:37:07.000                : End Credits

     

  • Peso: 4.62 GiB

Sinopsis

Dos agentes de la CIA y ex amantes (Chris Pine y Thandiwe Newton) vuelven a estar juntos años después de un intento fallido de rescate y se ven obligados a descifrar las líneas entre profesión y pasión en esta historia profundamente fascinante de espionaje global, dilema moral y traición mortal.

Ficha técnica

  • Titulo original: All the Old Knives
  • Fecha de lanzamiento: 08-04-2022 (United States of America)
  • Director: Janus Metz Pedersen
  • Género: Suspenso

Video trailer de la película

Enlaces de descarga

Rip de Bluray

Descargar All the Old Knives (2022) AMZN WEB-DL 1080p Latino




Aportes de DPeliculasHDmega la pass es:dpeliculashdmega.org Aportes de CinemaniaHD la pass es:cinemaniahdd.com
Guardado en : Suspenso

Películas relacionadas

  • Resurrección (2022) AMZN WEB-DL 1080p Latino

    Resurrección (2022) AMZN WEB-DL 1080p Latino

    2022
    Resurrección (2022) AMZN WEB-DL 1080p Latino

    1h 43m 2022

    Descargar Resurrección (2022) AMZN Web-DL 1080p Latino. La vida cuidadosamente construida de una mujer...

    Director: Michael Kefeyalew

    Género: Drama

    Actores: Zarra Kaahn

  • Plan De Estudios (2022) NF WEB-DL 1080p Latino

    Plan De Estudios (2022) NF WEB-DL 1080p Latino

    2022
    Plan De Estudios (2022) NF WEB-DL 1080p Latino

    1h 41m 2022

    Un expolicía empieza a trabajar en el instituto en el que su difunto mejor amigo daba clase para enfrentarse...

    Director: Daniel Markowicz

    Género: Crimen

    Actores: Zuzanna Galewicz

  • Locked In (2021) PLACEBO Full HD 1080p Latino

    Locked In (2021) PLACEBO Full HD 1080p Latino

    2021
    Locked In (2021) PLACEBO Full HD 1080p Latino

    1h 30m 2021

    Descargar Locked In (2021) PLACEBO Full HD 1080p Latino. Una madre soltera debe proteger a su hija durante...

    Director: Joe Narode

    Género: Crimen

    Actores: Natalie Smith

  • Locked In (2021) REMUX 1080p Latino

    Locked In (2021) REMUX 1080p Latino

    2021
    Locked In (2021) REMUX 1080p Latino

    1h 30m 2021

    Descargar Locked In (2021) REMUX 1080p Latino. Una madre soltera debe proteger a su hija durante un robo...

    Director: Joe Narode

    Género: Crimen

    Actores: Natalie Smith

  • Nope (2022) [IMAX] REMUX 4K HDR Latino – CMHDD

    Nope (2022) [IMAX] REMUX 4K HDR Latino – CMHDD

    2022
    Nope (2022) [IMAX] REMUX 4K HDR Latino – CMHDD

    2h 15m 2022

    Los habitantes de un remoto pueblo del interior de California, entre los que se encuentran los propietarios...

    Director: Wayne Witherspoon

    Género: Ciencia ficción

    Actores: Wrenn Schmidt

descargar All the Old Knives (2022) AMZN WEB-DL 1080p Latino 1080p 1080p gratis, All the Old Knives (2022) AMZN WEB-DL 1080p Latino 1080p mega 1 link, All the Old Knives (2022) AMZN WEB-DL 1080p Latino 1080p pelicula completa, descargar All the Old Knives (2022) AMZN WEB-DL 1080p Latino 1080p gratis en mega.

All the Old Knives (2022) AMZN WEB-DL 1080p Latino pelicula full hd, All the Old Knives (2022) AMZN WEB-DL 1080p Latino mega latino, All the Old Knives (2022) AMZN WEB-DL 1080p Latino 4k latino, All the Old Knives (2022) AMZN WEB-DL 1080p Latino pelicula completa, All the Old Knives (2022) AMZN WEB-DL 1080p Latino descargar gratis, descargar All the Old Knives (2022) AMZN WEB-DL 1080p Latino pelicula latino, All the Old Knives (2022) AMZN WEB-DL 1080p Latino 1 link mega, All the Old Knives (2022) AMZN WEB-DL 1080p Latino 1 link google drive, All the Old Knives (2022) AMZN WEB-DL 1080p Latino hd 1080p latino.
Comentarios 0