×

¿Problemas para descargar con Mozilla, EDGE? Deshabilita la opción "Abrir vinculos en una pestaña nueva" tal como lo muestra ésta imagen.

El Escuadrón del Diablo (2018) REMUX 1080p Latino

712 vistas

Información de El Escuadrón del Diablo (2018) REMUX 1080p Latino

Datos de la película

  • Calidad: Full 1080p
  • Audio: Se especifica abajo de la Sinopsis
  • Subtitulos: Español Latino SRT
  • Resolución: 1920x1080p
  • Formato: MKV
  • Codec: H.264
  • Encoder: CinefiloCool
  • Mediainfo: Clic para Mostrar Datos Ver
  • El Escuadron Del Diablo (2018) REMUX 1080p Latino-CMHDD.mkv
    Format                      : Matroska
    Format version              : Version 4
    File size                   : 18.5 GiB
    Duration                    : 1 h 39 min
    Overall bit rate mode       : Variable
    Overall bit rate            : 26.6 Mb/s
    Movie name                  : CinemaniaHDD.Net
    Encoded date                : UTC 2020-01-25 04:03:23
    Writing application         : mkvmerge v42.0.0 ('Overtime') 64-bit
    Writing library             : libebml v1.3.10 + libmatroska v1.5.2
    Attachments                 : CINEMANIAHD.png

    Video
    ID                          : 1
    Format                      : AVC
    Format/Info                 : Advanced Video Codec
    Format profile              : High@L4.1
    Format settings             : CABAC / 4 Ref Frames
    Format settings, CABAC      : Yes
    Format settings, ReFrames   : 4 frames
    Codec ID                    : V_MPEG4/ISO/AVC
    Duration                    : 1 h 39 min
    Bit rate mode               : Variable
    Bit rate                    : 22.8 Mb/s
    Maximum bit rate            : 38.0 Mb/s
    Width                       : 1 920 pixels
    Height                      : 1 080 pixels
    Display aspect ratio        : 16:9
    Frame rate mode             : Constant
    Frame rate                  : 24.000 FPS
    Color space                 : YUV
    Chroma subsampling          : 4:2:0
    Bit depth                   : 8 bits
    Scan type                   : Progressive
    Bits/(Pixel*Frame)          : 0.459
    Stream size                 : 15.9 GiB (86%)
    Title                       : Full HD1080p [REMUX]
    Default                     : Yes
    Forced                      : Yes

    Audio #1
    ID                          : 2
    Format                      : AC-3
    Format/Info                 : Audio Coding 3
    Commercial name             : Dolby Digital
    Codec ID                    : A_AC3
    Duration                    : 1 h 39 min
    Bit rate mode               : Constant
    Bit rate                    : 384 kb/s
    Channel(s)                  : 2 channels
    Channel layout              : L R
    Sampling rate               : 48.0 kHz
    Frame rate                  : 31.250 FPS (1536 SPF)
    Bit depth                   : 16 bits
    Compression mode            : Lossy
    Stream size                 : 274 MiB (1%)
    Title                       : AC3_2.0_Capt_Esp
    Language                    : Spanish
    Service kind                : Complete Main
    Default                     : Yes
    Forced                      : Yes

    Audio #2
    ID                          : 3
    Format                      : DTS XLL
    Format/Info                 : Digital Theater Systems
    Commercial name             : DTS-HD Master Audio
    Codec ID                    : A_DTS
    Duration                    : 1 h 39 min
    Bit rate mode               : Variable
    Bit rate                    : 3 392 kb/s
    Channel(s)                  : 6 channels
    Channel layout              : C L R Ls Rs LFE
    Sampling rate               : 48.0 kHz
    Frame rate                  : 93.750 FPS (512 SPF)
    Bit depth                   : 24 bits
    Compression mode            : Lossless
    Stream size                 : 2.36 GiB (13%)
    Title                       : DTS-HD_5.1_Bluray_Eng
    Language                    : English
    Default                     : No
    Forced                      : No

    Text
    ID                          : 4
    Format                      : UTF-8
    Codec ID                    : S_TEXT/UTF8
    Codec ID/Info               : UTF-8 Plain Text
    Duration                    : 1 h 30 min
    Bit rate                    : 42 b/s
    Count of elements           : 791
    Stream size                 : 27.8 KiB (0%)
    Title                       : Sub_Esp
    Language                    : Spanish
    Default                     : No
    Forced                      : No

    Menu
    00:00:00.000                : en:Chapter 01
    00:01:01.833                : en:Chapter 02
    00:09:57.541                : en:Chapter 03
    00:20:02.875                : en:Chapter 04
    00:25:24.750                : en:Chapter 05
    00:35:17.958                : en:Chapter 06
    00:42:27.291                : en:Chapter 07
    00:51:25.000                : en:Chapter 08
    00:57:41.125                : en:Chapter 09
    01:05:31.458                : en:Chapter 10
    01:17:21.708                : en:Chapter 11
    01:25:25.041                : en:Chapter 12
    01:32:52.833                : en:Chapter 13

  • Peso: 18.5 GiB

Sinopsis

Descargar El Escuadrón del Diablo (2018) REMUX 1080p Latino. Un cazarrecompensas viaja a Londres para capturar a un oficial de la CIA renegado, lo que desata una batalla en la que tendrá que enfrentarse a un compañero exmilitar y su ejército privado.

Audio Español Latino AC3 2.0 Capturado – Ingles DTS-HD 5.1 Bluray

Ficha técnica

  • Titulo original: All the Devil's Men
  • Fecha de lanzamiento: 12-05-2018 (United Kingdom)
  • Director: Matthew Hope
  • Género: Acción, Remux

Video trailer de la película

Enlaces de descarga

Rip de Bluray

Descargar El Escuadrón del Diablo (2018) REMUX 1080p Latino




Aportes de DPeliculasHDmega la pass es:dpeliculashdmega.org Aportes de CinemaniaHD la pass es:cinemaniahdd.com
Guardado en : Acción , Remux

Películas relacionadas

  • Mi amigo el dragón (2016) REMUX 1080p Latino

    Mi amigo el dragón (2016) REMUX 1080p Latino

    2016
    Mi amigo el dragón (2016) REMUX 1080p Latino

    1h 43m 2016

    Descargar Mi amigo el dragón (2016) REMUX 1080p Latino. Durante años el Sr. Meacham, un viejo tallador...

    Director: Joe Nolan

    Género: Aventura

    Actores: William J. Rawbone

  • El discurso del Rey (2010) REMUX 1080p Latino

    El discurso del Rey (2010) REMUX 1080p Latino

    2010
    El discurso del Rey (2010) REMUX 1080p Latino

    1h 58m 2010

    Descargar El discurso del Rey (2010) REMUX 1080p Latino. El duque de York se convirtió en rey de Gran...

    Director: Tom Hooper

    Género: Drama

    Actores: Tony Earnshaw

  • Lucy (2014) REMUX 4K HDR Latino – CMHDD

    Lucy (2014) REMUX 4K HDR Latino – CMHDD

    2014
    Lucy (2014) REMUX 4K HDR Latino – CMHDD

    1h 30m 2014

    Lucy, una joven obligada a ejercer de mula de una nueva y potente droga, adquiere de repente enormes...

    Director: Luc Besson

    Género: Acción

    Actores: Wolfgang Pissors

descargar El Escuadrón del Diablo (2018) REMUX 1080p Latino Full 1080p 1080p gratis, El Escuadrón del Diablo (2018) REMUX 1080p Latino Full 1080p mega 1 link, El Escuadrón del Diablo (2018) REMUX 1080p Latino Full 1080p pelicula completa, descargar El Escuadrón del Diablo (2018) REMUX 1080p Latino Full 1080p gratis en mega.

El Escuadrón del Diablo (2018) REMUX 1080p Latino pelicula full hd, El Escuadrón del Diablo (2018) REMUX 1080p Latino mega latino, El Escuadrón del Diablo (2018) REMUX 1080p Latino 4k latino, El Escuadrón del Diablo (2018) REMUX 1080p Latino pelicula completa, El Escuadrón del Diablo (2018) REMUX 1080p Latino descargar gratis, descargar El Escuadrón del Diablo (2018) REMUX 1080p Latino pelicula latino, El Escuadrón del Diablo (2018) REMUX 1080p Latino 1 link mega, El Escuadrón del Diablo (2018) REMUX 1080p Latino 1 link google drive, El Escuadrón del Diablo (2018) REMUX 1080p Latino hd 1080p latino.
Comentarios 0