×

¿Problemas para descargar con Mozilla, EDGE? Deshabilita la opción "Abrir vinculos en una pestaña nueva" tal como lo muestra ésta imagen.

El Escuadrón del Diablo (2018) Full HD 1080p Latino

1.794 vistas

Información de El Escuadrón del Diablo (2018) Full HD 1080p Latino

Datos de la película

  • Calidad: Full 1080p
  • Audio: Se especifica abajo de la Sinopsis
  • Subtitulos: Español Latino SRT
  • Resolución: 1920x1080p
  • Formato: MKV
  • Codec: H.264
  • Encoder: CinefiloCool
  • Mediainfo: Clic para Mostrar Datos Ver
  • El Escuadron Del Diablo (2018) Full HD 1080p Latino-CMHDD.mkv
    Format                      : Matroska
    Format version              : Version 4
    File size                   : 3.87 GiB
    Duration                    : 1 h 39 min
    Overall bit rate            : 5 555 kb/s
    Movie name                  : CinemaniaHDD.Net
    Encoded date                : UTC 2020-01-25 04:10:07
    Writing application         : mkvmerge v42.0.0 ('Overtime') 64-bit
    Writing library             : libebml v1.3.10 + libmatroska v1.5.2
    Attachments                 : CINEMANIAHD.png

    Video
    ID                          : 1
    Format                      : AVC
    Format/Info                 : Advanced Video Codec
    Format profile              : High@L4.1
    Format settings             : CABAC / 4 Ref Frames
    Format settings, CABAC      : Yes
    Format settings, ReFrames   : 4 frames
    Codec ID                    : V_MPEG4/ISO/AVC
    Duration                    : 1 h 39 min
    Bit rate                    : 3 660 kb/s
    Width                       : 1 920 pixels
    Height                      : 1 080 pixels
    Display aspect ratio        : 16:9
    Frame rate mode             : Constant
    Frame rate                  : 24.000 FPS
    Color space                 : YUV
    Chroma subsampling          : 4:2:0
    Bit depth                   : 8 bits
    Scan type                   : Progressive
    Bits/(Pixel*Frame)          : 0.074
    Stream size                 : 2.55 GiB (66%)
    Title                       : Full HD1080p [Bluray]
    Writing library             : x264 core 157 r2935 545de2f
    Encoding settings           : cabac=1 / ref=4 / deblock=1:-1:-1 / analyse=0x3:0x133 / me=tesa / subme=11 / psy=1 / psy_rd=1.00:0.15 / mixed_ref=1 / me_range=24 / chroma_me=1 / trellis=2 / 8x8dct=1 / cqm=0 / deadzone=21,11 / fast_pskip=0 / chroma_qp_offset=-3 / threads=34 / lookahead_threads=8 / sliced_threads=0 / nr=0 / decimate=1 / interlaced=0 / bluray_compat=0 / constrained_intra=0 / bframes=16 / b_pyramid=2 / b_adapt=2 / b_bias=0 / direct=3 / weightb=1 / open_gop=0 / weightp=2 / keyint=240 / keyint_min=24 / scenecut=40 / intra_refresh=0 / rc_lookahead=60 / rc=crf / mbtree=1 / crf=20.0 / qcomp=0.60 / qpmin=0 / qpmax=69 / qpstep=4 / vbv_maxrate=62500 / vbv_bufsize=78125 / crf_max=0.0 / nal_hrd=none / filler=0 / ip_ratio=1.40 / aq=1:1.00
    Default                     : Yes
    Forced                      : Yes
    Color range                 : Limited
    Color primaries             : BT.709
    Transfer characteristics    : BT.709
    Matrix coefficients         : BT.709

    Audio #1
    ID                          : 2
    Format                      : AC-3
    Format/Info                 : Audio Coding 3
    Commercial name             : Dolby Digital
    Codec ID                    : A_AC3
    Duration                    : 1 h 39 min
    Bit rate mode               : Constant
    Bit rate                    : 384 kb/s
    Channel(s)                  : 2 channels
    Channel layout              : L R
    Sampling rate               : 48.0 kHz
    Frame rate                  : 31.250 FPS (1536 SPF)
    Bit depth                   : 16 bits
    Compression mode            : Lossy
    Stream size                 : 274 MiB (7%)
    Title                       : AC3_2.0_Capt_Esp
    Language                    : Spanish
    Service kind                : Complete Main
    Default                     : Yes
    Forced                      : Yes

    Audio #2
    ID                          : 3
    Format                      : DTS
    Format/Info                 : Digital Theater Systems
    Codec ID                    : A_DTS
    Duration                    : 1 h 39 min
    Bit rate mode               : Constant
    Bit rate                    : 1 509 kb/s
    Channel(s)                  : 6 channels
    Channel layout              : C L R Ls Rs LFE
    Sampling rate               : 48.0 kHz
    Frame rate                  : 93.750 FPS (512 SPF)
    Bit depth                   : 24 bits
    Compression mode            : Lossy
    Stream size                 : 1.05 GiB (27%)
    Title                       : DTS_5.1_Bluray_Eng
    Language                    : English
    Default                     : No
    Forced                      : No

    Text
    ID                          : 4
    Format                      : UTF-8
    Codec ID                    : S_TEXT/UTF8
    Codec ID/Info               : UTF-8 Plain Text
    Duration                    : 1 h 30 min
    Bit rate                    : 42 b/s
    Count of elements           : 791
    Stream size                 : 27.8 KiB (0%)
    Title                       : Sub_Esp
    Language                    : Spanish
    Default                     : No
    Forced                      : No

    Menu
    00:00:00.000                : :Chapter 1
    00:01:01.917                : :Chapter 2
    00:09:57.542                : :Chapter 3
    00:20:02.875                : :Chapter 4
    00:25:24.750                : :Chapter 5
    00:35:18.042                : :Chapter 6
    00:42:27.292                : :Chapter 7
    00:51:25.000                : :Chapter 8
    00:57:41.125                : :Chapter 9
    01:05:31.583                : :Chapter 10
    01:17:21.833                : :Chapter 11
    01:25:25.042                : :Chapter 12
    01:32:52.917                : :Chapter 13

  • Peso: 3.87 GiB

Sinopsis

Descargar El Escuadrón del Diablo (2018) Full HD 1080p Latino. Un cazarrecompensas viaja a Londres para capturar a un oficial de la CIA renegado, lo que desata una batalla en la que tendrá que enfrentarse a un compañero exmilitar y su ejército privado.

Audio Español Latino AC3 2.0 Capturado – Ingles DTS 5.1 Bluray

Ficha técnica

Video trailer de la película

Enlaces de descarga

Rip de Bluray

Descargar El Escuadrón del Diablo (2018) Full HD 1080p Latino




Aportes de DPeliculasHDmega la pass es:dpeliculashdmega.org Aportes de CinemaniaHD la pass es:cinemaniahdd.com

Películas relacionadas

descargar El Escuadrón del Diablo (2018) Full HD 1080p Latino Full 1080p 1080p gratis, El Escuadrón del Diablo (2018) Full HD 1080p Latino Full 1080p mega 1 link, El Escuadrón del Diablo (2018) Full HD 1080p Latino Full 1080p pelicula completa, descargar El Escuadrón del Diablo (2018) Full HD 1080p Latino Full 1080p gratis en mega.

El Escuadrón del Diablo (2018) Full HD 1080p Latino pelicula full hd, El Escuadrón del Diablo (2018) Full HD 1080p Latino mega latino, El Escuadrón del Diablo (2018) Full HD 1080p Latino 4k latino, El Escuadrón del Diablo (2018) Full HD 1080p Latino pelicula completa, El Escuadrón del Diablo (2018) Full HD 1080p Latino descargar gratis, descargar El Escuadrón del Diablo (2018) Full HD 1080p Latino pelicula latino, El Escuadrón del Diablo (2018) Full HD 1080p Latino 1 link mega, El Escuadrón del Diablo (2018) Full HD 1080p Latino 1 link google drive, El Escuadrón del Diablo (2018) Full HD 1080p Latino hd 1080p latino.
Comentarios 2
  • Ari - 26 enero, 2020

    Que queire decir audio capturado? Es audio capturado del cine o algo de un DVD/Bluray, o cualquier fuente original?

    • CinemaniaHDD - 26 enero, 2020

      Capturado la misma palabra lo dice todo, cuando es audio de cine eso se llama grabacion o CAM y esas cosas aqui no usamos jamas 😉