×

¿Problemas para descargar con Mozilla, EDGE? Deshabilita la opción "Abrir vinculos en una pestaña nueva" tal como lo muestra ésta imagen.

Alita: Ángel de Combate (2019) 4K UHD HDR WEB-DL Latino

4.458 vistas

Información de Alita: Ángel de Combate (2019) 4K UHD HDR WEB-DL Latino

Datos de la película

  • Calidad: 4K HDR
  • Audio: Se especifica abajo de la Sinopsis
  • Subtitulos: Español Latino SRT
  • Resolución: 3840x2160p
  • Formato: MKV
  • Codec: HEVC
  • Encoder: CinemaniaHD
  • Mediainfo: Clic para Mostrar Datos Ver
  • Battle Angel - La Ultima Guerrera (2019) Web-DL UHD HDR Latino.mkv
    Format                      : Matroska
    Format version              : Version 4
    File size                   : 21.6 GiB
    Duration                    : 2 h 1 min
    Overall bit rate            : 25.3 Mb/s
    Movie name                  : CinemaniaHDD.Net
    Encoded date                : UTC 2019-07-09 16:25:32
    Writing application         : mkvmerge v35.0.0 ('All The Love In The World') 64-bit
    Writing library             : libebml v1.3.9 + libmatroska v1.5.2
    Attachments                 : CINEMANIAHD.png

    Video
    ID                          : 1
    Format                      : HEVC
    Format/Info                 : High Efficiency Video Coding
    Commercial name             : HDR10
    Format profile              : Main 10@L5@High
    Codec ID                    : V_MPEGH/ISO/HEVC
    Duration                    : 2 h 1 min
    Bit rate                    : 24.5 Mb/s
    Width                       : 3 840 pixels
    Height                      : 1 608 pixels
    Original height             : 2 160 pixels
    Display aspect ratio        : 16:9
    Frame rate mode             : Constant
    Frame rate                  : 23.976 (24000/1001) FPS
    Color space                 : YUV
    Chroma subsampling          : 4:2:0 (Type 2)
    Bit depth                   : 10 bits
    Bits/(Pixel*Frame)          : 0.165
    Stream size                 : 20.9 GiB (97%)
    Title                       : CinemaniaHDD
    Language                    : English
    Default                     : Yes
    Forced                      : No
    Color range                 : Limited
    Color primaries             : BT.2020
    Transfer characteristics    : PQ
    Matrix coefficients         : BT.2020 non-constant
    Mastering display color pri : Display P3
    Mastering display luminance : min: 0.0050 cd/m2, max: 1000 cd/m2

    Audio #1
    ID                          : 2
    Format                      : AC-3
    Format/Info                 : Audio Coding 3
    Commercial name             : Dolby Digital
    Codec ID                    : A_AC3
    Duration                    : 2 h 1 min
    Bit rate mode               : Constant
    Bit rate                    : 256 kb/s
    Channel(s)                  : 2 channels
    Channel layout              : L R
    Sampling rate               : 48.0 kHz
    Frame rate                  : 31.250 FPS (1536 SPF)
    Bit depth                   : 16 bits
    Compression mode            : Lossy
    Stream size                 : 223 MiB (1%)
    Title                       : Español 2.0 CinemaniaHDD
    Language                    : Spanish
    Service kind                : Complete Main
    Default                     : Yes
    Forced                      : Yes

    Audio #2
    ID                          : 3
    Format                      : E-AC-3 JOC
    Format/Info                 : Enhanced AC-3 with Joint Object Coding
    Commercial name             : Dolby Digital Plus with Dolby Atmos
    Codec ID                    : A_EAC3
    Duration                    : 2 h 1 min
    Bit rate mode               : Constant
    Bit rate                    : 576 kb/s
    Channel(s)                  : 6 channels
    Channel layout              : L R C LFE Ls Rs
    Sampling rate               : 48.0 kHz
    Frame rate                  : 31.250 FPS (1536 SPF)
    Compression mode            : Lossy
    Delay relative to video     : 83 ms
    Stream size                 : 502 MiB (2%)
    Title                       : Ingles 5.1 CinemaniaHDD
    Language                    : English
    Service kind                : Complete Main
    Default                     : No
    Forced                      : No
    Complexity index            : 16
    Number of dynamic objects   : 15
    Bed channel count           : 1 channel
    Bed channel configuration   : LFE

    Text #1
    ID                          : 4
    Format                      : UTF-8
    Codec ID                    : S_TEXT/UTF8
    Codec ID/Info               : UTF-8 Plain Text
    Duration                    : 2 h 1 min
    Bit rate                    : 36 b/s
    Count of elements           : 1239
    Stream size                 : 32.8 KiB (0%)
    Title                       : Español CinemaniaHDD
    Language                    : Spanish
    Default                     : No
    Forced                      : No

    Text #2
    ID                          : 5
    Format                      : UTF-8
    Codec ID                    : S_TEXT/UTF8
    Codec ID/Info               : UTF-8 Plain Text
    Duration                    : 1 h 55 min
    Bit rate                    : 40 b/s
    Count of elements           : 1347
    Stream size                 : 34.0 KiB (0%)
    Title                       : Ingles CinemaniaHDD
    Language                    : English
    Default                     : No
    Forced                      : No

    Menu
    00:00:01.000                : en:Chapter 01
    00:03:29.000                : en:Chapter 02
    00:07:52.000                : en:Chapter 03
    00:10:08.000                : en:Chapter 04
    00:13:07.000                : en:Chapter 05
    00:15:07.000                : en:Chapter 06
    00:18:05.000                : en:Chapter 07
    00:22:59.000                : en:Chapter 08
    00:25:36.000                : en:Chapter 09
    00:31:41.000                : en:Chapter 10
    00:33:30.000                : en:Chapter 11
    00:36:33.000                : en:Chapter 12
    00:38:31.000                : en:Chapter 13
    00:42:06.000                : en:Chapter 14
    00:45:59.000                : en:Chapter 15
    00:48:32.000                : en:Chapter 16
    00:52:58.000                : en:Chapter 17
    00:55:15.000                : en:Chapter 18
    01:00:40.000                : en:Chapter 19
    01:02:57.000                : en:Chapter 20
    01:05:17.000                : en:Chapter 21
    01:10:51.000                : en:Chapter 22
    01:13:38.000                : en:Chapter 23
    01:16:36.000                : en:Chapter 24
    01:18:53.000                : en:Chapter 25
    01:22:49.000                : en:Chapter 26
    01:24:56.000                : en:Chapter 27
    01:28:26.000                : en:Chapter 28
    01:33:19.000                : en:Chapter 29
    01:36:09.000                : en:Chapter 30
    01:41:55.000                : en:Chapter 31
    01:45:24.000                : en:Chapter 32
    01:48:17.000                : en:Chapter 33
    01:51:44.000                : en:Chapter 34
    01:54:44.000                : en:Chapter 35
    01:56:52.000                : en:Chapter 36

  • Peso: 21.6 GiB

Sinopsis

Descargar Alita: Ángel de Combate (2019) 4K UHD HDR WEB-DL Latino. Ido, un compasivo médico de ciborgs, encuentra a Alita abandonada en el desguace de Iron City. Cuando Alita despierta, no sabe quién es, ni reconoce el mundo en el que se encuentra, todo es nuevo para ella. Ido intentará proteger a Alita de su misterioso pasado, mientras que su nuevo amigo Hugo le ayudará a despertar sus recuerdos. En ese momento, Alita descubre que posee habilidades de combate extraordinarias, que podría usar para salvar a su nueva familia y amigos. Decidida a descubrir la verdad tras sus orígenes, Alita comienza un viaje que le enfrentará a las injusticias de un mundo oscuro y corrupto, descubriendo que solo ella puede cambiar el mundo en el que vive.

Audio Español Latino AC3 2.0 Itunes – Ingles E-AC3 (+ Atmos) 5.1 Itunes

Ficha técnica

Video trailer de la película

Enlaces de descarga

Rip de Bluray

Descargar Alita: Ángel de Combate (2019) 4K UHD HDR WEB-DL Latino




Aportes de DPeliculasHDmega la pass es:dpeliculashdmega.org Aportes de CinemaniaHD la pass es:cinemaniahdd.com Aportes recientes:cinemaniahdd.net

Películas relacionadas

descargar Alita: Ángel de Combate (2019) 4K UHD HDR WEB-DL Latino 4K HDR 1080p gratis, Alita: Ángel de Combate (2019) 4K UHD HDR WEB-DL Latino 4K HDR mega 1 link, Alita: Ángel de Combate (2019) 4K UHD HDR WEB-DL Latino 4K HDR pelicula completa, descargar Alita: Ángel de Combate (2019) 4K UHD HDR WEB-DL Latino 4K HDR gratis en mega.

Alita: Ángel de Combate (2019) 4K UHD HDR WEB-DL Latino pelicula full hd, Alita: Ángel de Combate (2019) 4K UHD HDR WEB-DL Latino mega latino, Alita: Ángel de Combate (2019) 4K UHD HDR WEB-DL Latino 4k latino, Alita: Ángel de Combate (2019) 4K UHD HDR WEB-DL Latino pelicula completa, Alita: Ángel de Combate (2019) 4K UHD HDR WEB-DL Latino descargar gratis, descargar Alita: Ángel de Combate (2019) 4K UHD HDR WEB-DL Latino pelicula latino, Alita: Ángel de Combate (2019) 4K UHD HDR WEB-DL Latino 1 link mega, Alita: Ángel de Combate (2019) 4K UHD HDR WEB-DL Latino 1 link google drive, Alita: Ángel de Combate (2019) 4K UHD HDR WEB-DL Latino hd 1080p latino.
Comentarios 0