×

¿Problemas para descargar con Mozilla, EDGE? Deshabilita la opción "Abrir vinculos en una pestaña nueva" tal como lo muestra ésta imagen.

Alita: Ángel de Combate (2019) Full HD 1080p Latino

12.050 vistas

Información de Alita: Ángel de Combate (2019) Full HD 1080p Latino

8ConJ03HoRTwHpdvtwqnMd2uffC

Datos de la película

  • Calidad: Full 1080p
  • Audio: Español Latino AC3 5.1 BLURAY - Ingles DTS 5.1 BLURAY
  • Subtitulos: Español Latino PGS - Ingles PGS
  • Resolución: 1920x1080p
  • Formato: MKV
  • Codec: H.264
  • Encoder: CinefiloCool
  • Mediainfo: Clic para Mostrar Datos Ver
  • Battle Angel - La Ultima Guerrera (2019) Full HD 1080p Latino-CMHDD.mkv
    Format                      : Matroska
    Format version              : Version 4
    File size                   : 6.78 GiB
    Duration                    : 2 h 1 min
    Overall bit rate            : 7 960 kb/s
    Movie name                  : Alita: Battle Angel (2019) CinemaniaHDD.Net
    Encoded date                : UTC 2019-07-14 04:57:13
    Writing application         : mkvmerge v35.0.0 ('All The Love In The World') 64-bit
    Writing library             : libebml v1.3.9 + libmatroska v1.5.2
    Attachments                 : CINEMANIAHD.png

    Video
    ID                          : 1
    Format                      : AVC
    Format/Info                 : Advanced Video Codec
    Format profile              : High@L4.1
    Format settings             : CABAC / 4 Ref Frames
    Format settings, CABAC      : Yes
    Format settings, ReFrames   : 4 frames
    Codec ID                    : V_MPEG4/ISO/AVC
    Duration                    : 2 h 1 min
    Bit rate                    : 5 983 kb/s
    Width                       : 1 920 pixels
    Height                      : 1 080 pixels
    Display aspect ratio        : 16:9
    Frame rate mode             : Constant
    Frame rate                  : 23.976 (24000/1001) FPS
    Color space                 : YUV
    Chroma subsampling          : 4:2:0
    Bit depth                   : 8 bits
    Scan type                   : Progressive
    Bits/(Pixel*Frame)          : 0.120
    Stream size                 : 5.10 GiB (75%)
    Title                       : Full HD1080p [Bluray]
    Writing library             : x264 core 157 r2935 545de2f
    Encoding settings           : cabac=1 / ref=4 / deblock=1:0:0 / analyse=0x3:0x133 / me=tesa / subme=11 / psy=1 / psy_rd=1.00:0.00 / mixed_ref=1 / me_range=24 / chroma_me=1 / trellis=2 / 8x8dct=1 / cqm=0 / deadzone=21,11 / fast_pskip=0 / chroma_qp_offset=-2 / threads=34 / lookahead_threads=8 / sliced_threads=0 / nr=0 / decimate=1 / interlaced=0 / bluray_compat=0 / constrained_intra=0 / bframes=16 / b_pyramid=2 / b_adapt=2 / b_bias=0 / direct=3 / weightb=1 / open_gop=0 / weightp=2 / keyint=240 / keyint_min=24 / scenecut=40 / intra_refresh=0 / rc_lookahead=60 / rc=crf / mbtree=1 / crf=19.0 / qcomp=0.60 / qpmin=0 / qpmax=69 / qpstep=4 / vbv_maxrate=62500 / vbv_bufsize=78125 / crf_max=0.0 / nal_hrd=none / filler=0 / ip_ratio=1.40 / aq=1:1.00
    Default                     : Yes
    Forced                      : No
    Color range                 : Limited
    Color primaries             : BT.709
    Transfer characteristics    : BT.709
    Matrix coefficients         : BT.709

    Audio #1
    ID                          : 2
    Format                      : AC-3
    Format/Info                 : Audio Coding 3
    Commercial name             : Dolby Digital
    Codec ID                    : A_AC3
    Duration                    : 2 h 1 min
    Bit rate mode               : Constant
    Bit rate                    : 448 kb/s
    Channel(s)                  : 6 channels
    Channel layout              : L R C LFE Ls Rs
    Sampling rate               : 48.0 kHz
    Frame rate                  : 31.250 FPS (1536 SPF)
    Bit depth                   : 16 bits
    Compression mode            : Lossy
    Stream size                 : 391 MiB (6%)
    Title                       : AC3_5.1_Bluray_Esp
    Language                    : Spanish
    Service kind                : Complete Main
    Default                     : Yes
    Forced                      : Yes

    Audio #2
    ID                          : 3
    Format                      : DTS ES
    Format/Info                 : Digital Theater Systems
    Commercial name             : DTS-ES Matrix
    Codec ID                    : A_DTS
    Duration                    : 2 h 1 min
    Bit rate mode               : Constant
    Bit rate                    : 1 509 kb/s
    Channel(s)                  : 6 channels
    Channel(s)_Original         : 7 channels
    Channel layout              : C L R Ls Rs Cb LFE
    Sampling rate               : 48.0 kHz
    Frame rate                  : 93.750 FPS (512 SPF)
    Bit depth                   : 24 bits
    Compression mode            : Lossy
    Stream size                 : 1.29 GiB (19%)
    Title                       : DTS_5.1_Bluray_Eng
    Language                    : English
    Default                     : No
    Forced                      : No

    Text #1
    ID                          : 4
    Format                      : PGS
    Muxing mode                 : zlib
    Codec ID                    : S_HDMV/PGS
    Codec ID/Info               : Picture based subtitle format used on BDs/HD-DVDs
    Duration                    : 1 h 59 min
    Bit rate                    : 23.8 kb/s
    Count of elements           : 2474
    Stream size                 : 20.4 MiB (0%)
    Title                       : Sub_Esp [PGS]
    Language                    : Spanish
    Default                     : No
    Forced                      : No

    Text #2
    ID                          : 5
    Format                      : PGS
    Muxing mode                 : zlib
    Codec ID                    : S_HDMV/PGS
    Codec ID/Info               : Picture based subtitle format used on BDs/HD-DVDs
    Duration                    : 1 h 57 min
    Bit rate                    : 30.9 kb/s
    Count of elements           : 3178
    Stream size                 : 26.0 MiB (0%)
    Title                       : Sub_Eng [PGS]
    Language                    : English
    Default                     : No
    Forced                      : No

    Text #3
    ID                          : 6
    Format                      : UTF-8
    Codec ID                    : S_TEXT/UTF8
    Codec ID/Info               : UTF-8 Plain Text
    Duration                    : 1 h 50 min
    Bit rate                    : 0 b/s
    Count of elements           : 4
    Stream size                 : 102 Bytes (0%)
    Title                       : Sub_Forzados
    Language                    : Spanish
    Default                     : Yes
    Forced                      : Yes

    Text #4
    ID                          : 7
    Format                      : UTF-8
    Codec ID                    : S_TEXT/UTF8
    Codec ID/Info               : UTF-8 Plain Text
    Duration                    : 1 h 56 min
    Bit rate                    : 43 b/s
    Count of elements           : 1309
    Stream size                 : 37.0 KiB (0%)
    Title                       : Sub_Esp
    Language                    : Spanish
    Default                     : No
    Forced                      : No

    Menu
    00:00:00.000                : :Chapter 1
    00:03:28.667                : :Chapter 2
    00:07:51.680                : :Chapter 3
    00:10:07.982                : :Chapter 4
    00:13:06.703                : :Chapter 5
    00:15:06.739                : :Chapter 6
    00:18:04.542                : :Chapter 7
    00:22:58.711                : :Chapter 8
    00:25:35.325                : :Chapter 9
    00:31:40.899                : :Chapter 10
    00:33:29.299                : :Chapter 11
    00:36:32.816                : :Chapter 12
    00:38:30.892                : :Chapter 13
    00:42:05.481                : :Chapter 14
    00:45:58.214                : :Chapter 15
    00:48:31.450                : :Chapter 16
    00:52:57.049                : :Chapter 17
    00:55:14.353                : :Chapter 18
    01:00:39.761                : :Chapter 19
    01:02:56.564                : :Chapter 20
    01:05:16.788                : :Chapter 21
    01:10:50.496                : :Chapter 22
    01:13:37.288                : :Chapter 23
    01:16:35.299                : :Chapter 24
    01:18:52.228                : :Chapter 25
    01:22:48.297                : :Chapter 26
    01:24:55.340                : :Chapter 27
    01:28:25.300                : :Chapter 28
    01:33:18.551                : :Chapter 29
    01:36:08.763                : :Chapter 30
    01:41:54.692                : :Chapter 31
    01:45:23.442                : :Chapter 32
    01:48:16.490                : :Chapter 33
    01:51:43.655                : :Chapter 34
    01:54:43.668                : :Chapter 35
    01:56:51.505                : :Chapter 36

  • Peso: 6.78 GiB

Sinopsis

Descargar Alita: Ángel de Combate (2019) Full HD 1080p Latino. Mega, Google Drive. Ido, un compasivo médico de cíborgs, encuentra a Alita abandonada en el desguace de Iron City. Cuando Alita despierta, no sabe quién es, ni reconoce el mundo en el que se encuentra, todo es nuevo para ella. Ido intentará proteger a Alita de su misterioso pasado, mientras que su nuevo amigo Hugo le ayudará a despertar sus recuerdos. En ese momento, Alita descubre que posee habilidades de combate extraordinarias, que podría usar para salvar a su nueva familia y amigos. Decidida a encontrar la verdad tras sus orígenes, Alita comienza un viaje que le enfrentará a las injusticias de un mundo oscuro y corrupto, descubriendo que sólo ella puede cambiarlo.

Ficha técnica

Video trailer de la película

Enlaces de descarga

Rip de Bluray

Descargar Alita: Ángel de Combate (2019) Full HD 1080p Latino




Aportes de DPeliculasHDmega la pass es:dpeliculashdmega.org Aportes de CinemaniaHD la pass es:cinemaniahdd.com Aportes recientes:cinemaniahdd.net

Películas relacionadas

descargar Alita: Ángel de Combate (2019) Full HD 1080p Latino Full 1080p 1080p gratis, Alita: Ángel de Combate (2019) Full HD 1080p Latino Full 1080p mega 1 link, Alita: Ángel de Combate (2019) Full HD 1080p Latino Full 1080p pelicula completa, descargar Alita: Ángel de Combate (2019) Full HD 1080p Latino Full 1080p gratis en mega.

Alita: Ángel de Combate (2019) Full HD 1080p Latino pelicula full hd, Alita: Ángel de Combate (2019) Full HD 1080p Latino mega latino, Alita: Ángel de Combate (2019) Full HD 1080p Latino 4k latino, Alita: Ángel de Combate (2019) Full HD 1080p Latino pelicula completa, Alita: Ángel de Combate (2019) Full HD 1080p Latino descargar gratis, descargar Alita: Ángel de Combate (2019) Full HD 1080p Latino pelicula latino, Alita: Ángel de Combate (2019) Full HD 1080p Latino 1 link mega, Alita: Ángel de Combate (2019) Full HD 1080p Latino 1 link google drive, Alita: Ángel de Combate (2019) Full HD 1080p Latino hd 1080p latino.
Comentarios 0