×

¿Problemas para descargar con Mozilla, EDGE? Deshabilita la opción "Abrir vinculos en una pestaña nueva" tal como lo muestra ésta imagen.

Alien Covenant (2017) REMUX 4K HDR Latino – CMHDD

412 vistas

Información de Alien Covenant (2017) REMUX 4K HDR Latino – CMHDD

Datos de la película

  • Calidad: 4K HDR
  • Audio: Español Latino AC3 5.1 BLURAY - Ingles DTS-HD Master 7.1 BLURAY
  • Subtitulos: Español Latino PGS
  • Resolución: 3840x2160p
  • Formato: MKV
  • Codec: H.264
  • Encoder: Dracarys
  • Mediainfo: Clic para Mostrar Datos Ver
  • Latino - CMHDD.mkv
    Format                      : Matroska
    Format version              : Version 4
    File size                   : 34.3 GiB
    Duration                    : 2 h 2 min
    Overall bit rate mode       : Variable
    Overall bit rate            : 40.3 Mb/s
    Movie name                  : Alien Covenant (2017) REMUX 4K HDR Latino - CMHDD
    Encoded date                : UTC 2023-03-07 00:58:34
    Writing application         : mkvmerge v47.0.0 ('Black Flag') 64-bit
    Writing library             : libebml v1.3.10 + libmatroska v1.5.2

    Video
    ID                          : 1
    ID in the original source m : 4113 (0x1011)
    Format                      : HEVC
    Format/Info                 : High Efficiency Video Coding
    Format profile              : Main 10@L5.1@High
    HDR format                  : SMPTE ST 2086, HDR10 compatible
    Codec ID                    : V_MPEGH/ISO/HEVC
    Duration                    : 2 h 2 min
    Bit rate                    : 35.0 Mb/s
    Width                       : 3 840 pixels
    Height                      : 2 160 pixels
    Display aspect ratio        : 16:9
    Frame rate mode             : Constant
    Frame rate                  : 23.976 (24000/1001) FPS
    Color space                 : YUV
    Chroma subsampling          : 4:2:0 (Type 2)
    Bit depth                   : 10 bits
    Bits/(Pixel*Frame)          : 0.176
    Stream size                 : 29.8 GiB (87%)
    Writing library             : ATEME Titan File 3.8.3 (4.8.3.0)        
    Language                    : English
    Default                     : No
    Forced                      : No
    Color range                 : Limited
    Color primaries             : BT.2020
    Transfer characteristics    : PQ
    Matrix coefficients         : BT.2020 non-constant
    Mastering display color pri : Display P3
    Mastering display luminance : min: 0.0050 cd/m2, max: 1000 cd/m2
    Original source medium      : Blu-ray

    Audio #1
    ID                          : 2
    Format                      : DTS XLL
    Format/Info                 : Digital Theater Systems
    Commercial name             : DTS-HD Master Audio
    Codec ID                    : A_DTS
    Duration                    : 2 h 2 min
    Bit rate mode               : Variable
    Bit rate                    : 4 186 kb/s
    Channel(s)                  : 8 channels
    Channel layout              : C L R LFE Lb Rb Lss Rss
    Sampling rate               : 48.0 kHz
    Frame rate                  : 93.750 FPS (512 SPF)
    Bit depth                   : 24 bits
    Compression mode            : Lossless
    Stream size                 : 3.57 GiB (10%)
    Title                       : DTS-HD MA 7.1
    Language                    : English
    Default                     : No
    Forced                      : No

    Audio #2
    ID                          : 3
    ID in the original source m : 4352 (0x1100)
    Format                      : AC-3
    Format/Info                 : Audio Coding 3
    Commercial name             : Dolby Digital
    Codec ID                    : A_AC3
    Duration                    : 2 h 2 min
    Bit rate mode               : Constant
    Bit rate                    : 640 kb/s
    Channel(s)                  : 6 channels
    Channel layout              : L R C LFE Ls Rs
    Sampling rate               : 48.0 kHz
    Frame rate                  : 31.250 FPS (1536 SPF)
    Compression mode            : Lossy
    Stream size                 : 559 MiB (2%)
    Title                       : DD 5.1
    Language                    : English
    Service kind                : Complete Main
    Default                     : No
    Forced                      : No
    Original source medium      : Blu-ray

    Audio #3
    ID                          : 4
    ID in the original source m : 4354 (0x1102)
    Format                      : AC-3
    Format/Info                 : Audio Coding 3
    Commercial name             : Dolby Digital
    Codec ID                    : A_AC3
    Duration                    : 2 h 2 min
    Bit rate mode               : Constant
    Bit rate                    : 448 kb/s
    Channel(s)                  : 6 channels
    Channel layout              : L R C LFE Ls Rs
    Sampling rate               : 48.0 kHz
    Frame rate                  : 31.250 FPS (1536 SPF)
    Compression mode            : Lossy
    Stream size                 : 391 MiB (1%)
    Title                       : DD 5.1
    Language                    : Spanish
    Service kind                : Complete Main
    Default                     : Yes
    Forced                      : No
    Original source medium      : Blu-ray

    Text
    ID                          : 5
    ID in the original source m : 4771 (0x12A3)
    Format                      : PGS
    Muxing mode                 : zlib
    Codec ID                    : S_HDMV/PGS
    Codec ID/Info               : Picture based subtitle format used on BDs/HD-DVDs
    Duration                    : 2 h 0 min
    Bit rate                    : 25.7 kb/s
    Frame rate                  : 0.367 FPS
    Count of elements           : 2654
    Stream size                 : 22.2 MiB (0%)
    Language                    : Spanish
    Default                     : No
    Forced                      : No
    Original source medium      : Blu-ray

    Menu
    00:00:00.000                : en:Chapter 01
    00:04:47.328                : en:Chapter 02
    00:13:07.495                : en:Chapter 03
    00:18:11.715                : en:Chapter 04
    00:22:46.073                : en:Chapter 05
    00:27:51.169                : en:Chapter 06
    00:33:12.907                : en:Chapter 07
    00:37:18.736                : en:Chapter 08
    00:42:19.912                : en:Chapter 09
    00:47:43.694                : en:Chapter 10
    00:52:04.371                : en:Chapter 11
    00:55:56.227                : en:Chapter 12
    01:00:17.363                : en:Chapter 13
    01:06:20.643                : en:Chapter 14
    01:11:25.030                : en:Chapter 15
    01:16:35.841                : en:Chapter 16
    01:21:09.781                : en:Chapter 17
    01:28:18.710                : en:Chapter 18
    01:31:21.476                : en:Chapter 19
    01:34:52.395                : en:Chapter 20
    01:39:23.666                : en:Chapter 21
    01:43:35.584                : en:Chapter 22
    01:50:49.100                : en:Chapter 23
    01:55:27.503                : en:Chapter 24

  • Peso: 34.3 GiB

Sinopsis

Rumbo a un remoto planeta al otro lado de la galaxia, la tripulación de la nave colonial Covenant descubre lo que creen que es un paraíso inexplorado, pero resulta tratarse de un mundo oscuro y hostil cuyo único habitante es un «sintético» llamado David (Michael Fassbender), superviviente de la malograda expedición Prometheus. Secuela de «Prometheus» (2012), a su vez precuela de «Alien, el octavo pasajero» (1979).

Ficha técnica

Video trailer de la película

Enlaces de descarga

Rip de Bluray

Descargar Alien Covenant (2017) REMUX 4K HDR Latino – CMHDD


Aportes de DPeliculasHDmega la pass es:dpeliculashdmega.org Aportes de CinemaniaHD la pass es:cinemaniahdd.com Aportes recientes:cinemaniahdd.net
Guardado en : Ciencia ficción , Misterio , Terror

Películas relacionadas

descargar Alien Covenant (2017) REMUX 4K HDR Latino – CMHDD 4K HDR 1080p gratis, Alien Covenant (2017) REMUX 4K HDR Latino – CMHDD 4K HDR mega 1 link, Alien Covenant (2017) REMUX 4K HDR Latino – CMHDD 4K HDR pelicula completa, descargar Alien Covenant (2017) REMUX 4K HDR Latino – CMHDD 4K HDR gratis en mega.

Alien Covenant (2017) REMUX 4K HDR Latino – CMHDD pelicula full hd, Alien Covenant (2017) REMUX 4K HDR Latino – CMHDD mega latino, Alien Covenant (2017) REMUX 4K HDR Latino – CMHDD 4k latino, Alien Covenant (2017) REMUX 4K HDR Latino – CMHDD pelicula completa, Alien Covenant (2017) REMUX 4K HDR Latino – CMHDD descargar gratis, descargar Alien Covenant (2017) REMUX 4K HDR Latino – CMHDD pelicula latino, Alien Covenant (2017) REMUX 4K HDR Latino – CMHDD 1 link mega, Alien Covenant (2017) REMUX 4K HDR Latino – CMHDD 1 link google drive, Alien Covenant (2017) REMUX 4K HDR Latino – CMHDD hd 1080p latino.
Comentarios 0