×

¿Problemas para descargar con Mozilla, EDGE? Deshabilita la opción "Abrir vinculos en una pestaña nueva" tal como lo muestra ésta imagen.

Alicia en el país de las maravillas (1951) HD 1080p Latino – CMHDD

353 vistas

Información de Alicia en el país de las maravillas (1951) HD 1080p Latino – CMHDD

Datos de la película

  • Calidad: 1080p
  • Audio: Español Latino AC3 5.1 BLURAY - Ingles AC3 5.1 BLURAY
  • Subtitulos: Español Latino SRT
  • Resolución: 1424x1080p
  • Formato: MKV
  • Codec: H.264
  • Encoder: Dracarys
  • Mediainfo: Clic para Mostrar Datos Ver
  • Format                      : Matroska
    Format version              : Version 4
    File size                   : 2.53 GiB
    Duration                    : 1 h 15 min
    Overall bit rate            : 4 805 kb/s
    Movie name                  : Alicia en el país de las maravillas (1951) HD 1080p Latino - CMHDD
    Encoded date                : UTC 2020-08-07 20:08:48
    Writing application         : mkvmerge v46.0.0 ('No Deeper Escape') 64-bit
    Writing library             : libebml v1.3.10 + libmatroska v1.5.2

    Video
    ID                          : 1
    Format                      : AVC
    Format/Info                 : Advanced Video Codec
    Format profile              : High@L4.1
    Format settings             : CABAC / 5 Ref Frames
    Format settings, CABAC      : Yes
    Format settings, Reference  : 5 frames
    Codec ID                    : V_MPEG4/ISO/AVC
    Duration                    : 1 h 15 min
    Bit rate                    : 3 500 kb/s
    Width                       : 1 424 pixels
    Height                      : 1 080 pixels
    Display aspect ratio        : 4:3
    Frame rate mode             : Constant
    Frame rate                  : 23.976 (24000/1001) FPS
    Color space                 : YUV
    Chroma subsampling          : 4:2:0
    Bit depth                   : 8 bits
    Scan type                   : Progressive
    Bits/(Pixel*Frame)          : 0.095
    Stream size                 : 1.85 GiB (73%)
    Writing library             : x264 core 157 r2935 545de2f
    Encoding settings           : cabac=1 / ref=5 / deblock=1:0:0 / analyse=0x3:0x113 / me=hex / subme=8 / psy=1 / psy_rd=1.00:0.00 / mixed_ref=1 / me_range=16 / chroma_me=1 / trellis=2 / 8x8dct=1 / cqm=0 / deadzone=21,11 / fast_pskip=1 / chroma_qp_offset=-2 / threads=24 / lookahead_threads=4 / sliced_threads=0 / nr=0 / decimate=1 / interlaced=0 / bluray_compat=0 / constrained_intra=0 / bframes=3 / b_pyramid=2 / b_adapt=1 / b_bias=0 / direct=3 / weightb=1 / open_gop=0 / weightp=2 / keyint=240 / keyint_min=24 / scenecut=40 / intra_refresh=0 / rc_lookahead=50 / rc=abr / mbtree=1 / bitrate=3500 / ratetol=1.0 / qcomp=0.60 / qpmin=0 / qpmax=69 / qpstep=4 / vbv_maxrate=62500 / vbv_bufsize=78125 / nal_hrd=none / filler=0 / ip_ratio=1.40 / aq=1:1.00
    Default                     : Yes
    Forced                      : No
    Color range                 : Limited
    Color primaries             : BT.709
    Transfer characteristics    : BT.709
    Matrix coefficients         : BT.709

    Audio #1
    ID                          : 2
    Format                      : AC-3
    Format/Info                 : Audio Coding 3
    Commercial name             : Dolby Digital
    Codec ID                    : A_AC3
    Duration                    : 1 h 15 min
    Bit rate mode               : Constant
    Bit rate                    : 640 kb/s
    Channel(s)                  : 6 channels
    Channel layout              : L R C LFE Ls Rs
    Sampling rate               : 48.0 kHz
    Frame rate                  : 31.250 FPS (1536 SPF)
    Compression mode            : Lossy
    Delay relative to video     : -5 ms
    Stream size                 : 345 MiB (13%)
    Language                    : Spanish
    Service kind                : Complete Main
    Default                     : Yes
    Forced                      : No

    Audio #2
    ID                          : 3
    Format                      : AC-3
    Format/Info                 : Audio Coding 3
    Commercial name             : Dolby Digital
    Codec ID                    : A_AC3
    Duration                    : 1 h 15 min
    Bit rate mode               : Constant
    Bit rate                    : 640 kb/s
    Channel(s)                  : 6 channels
    Channel layout              : L R C LFE Ls Rs
    Sampling rate               : 48.0 kHz
    Frame rate                  : 31.250 FPS (1536 SPF)
    Compression mode            : Lossy
    Delay relative to video     : -5 ms
    Stream size                 : 345 MiB (13%)
    Language                    : English
    Service kind                : Complete Main
    Default                     : No
    Forced                      : No

    Text
    ID                          : 4
    Format                      : UTF-8
    Codec ID                    : S_TEXT/UTF8
    Codec ID/Info               : UTF-8 Plain Text
    Duration                    : 1 h 14 min
    Bit rate                    : 57 b/s
    Count of elements           : 963
    Stream size                 : 31.5 KiB (0%)
    Language                    : Spanish
    Default                     : No
    Forced                      : No

    Menu
    00:00:00.000                : :Opening Credits
    00:01:42.185                : :Alice's History Lesson
    00:02:58.053                : :"In a World of My Own"
    00:04:48.705                : :The White Rabbit
    00:07:28.740                : :Curiouser and Curiouser
    00:08:11.700                : :The Bottle on the Table
    00:10:33.091                : :Through the Keyhole in a Bottle
    00:13:14.711                : :Alice Meets Tweedledee and Tweedledum
    00:15:03.528                : :The Walrus and the Carpenter
    00:20:53.294                : :The White Rabbit's House
    00:22:47.157                : :A Lizard with a Ladder
    00:26:21.413                : :A Garden of Talking Flowers
    00:27:16.677                : :"All in the Golden Afternoon"
    00:31:50.117                : :Advice From a Caterpillar
    00:36:34.234                : :More Ups and Downs for Alice
    00:38:30.225                : :The Chesire Cat
    00:41:36.703                : :A Mad Tea Party
    00:47:45.488                : :Who's Got Time?
    00:50:00.623                : :The Tugley Wood
    00:53:58.652                : :"Very Good Advice"
    00:56:08.866                : :The Chesire Cat Again
    00:57:18.477                : :"Painting the Roses Red"
    00:58:58.910                : :The March of the Cards
    01:00:09.981                : :The Queen of Hearts
    01:02:35.710                : :A Game of Croquet
    01:06:52.050                : :Alice's Trial
    01:11:29.827                : :The Chase

  • Peso: 2.53 GiB

Sinopsis

Historia de magia y fantasía en el que la joven Alicia se sumerge en el sorprendente país de las maravillas y conoce a extraordinarios personajes como Tweedledee y Tweedledum, el Sombrerero Loco, La Reina de Corazones y el frenético Conejo Blanco.

Ficha técnica

Video trailer de la película

Enlaces de descarga

Rip de Bluray

Descargar Alicia en el país de las maravillas (1951) HD 1080p Latino – CMHDD




Aportes de DPeliculasHDmega la pass es:dpeliculashdmega.org Aportes de CinemaniaHD la pass es:cinemaniahdd.com
Guardado en : Animación , Aventura , Familia , Fantasía

Películas relacionadas

  • Mar de sangre (2022) WEB-DL 1080p Latino

    Mar de sangre (2022) WEB-DL 1080p Latino

    2022
    Mar de sangre (2022) WEB-DL 1080p Latino

    1h 27m 2022

    Descargar Mar de sangre (2022) WEB-DL 1080p Latino. Un grupo de amigos que disfrutan de un fin de semana...

    Director: James Nunn

    Género: Acción

    Actores: Thomas Michael Flynn

  • Groundhog Day (1993) REMUX 4K HDR Latino – CMHDD

    Groundhog Day (1993) REMUX 4K HDR Latino – CMHDD

    1993
    Groundhog Day (1993) REMUX 4K HDR Latino – CMHDD

    1h 41m 1993

    Phil, hombre del tiempo de una cadena de televisión, es enviado un año más a Punxstawnwey, a cubrir...

    Director: Sam Hoffman

    Género: Comedia

    Actores: Willie Garson

  • Si no despierto (2017) BD-USA REMUX 1080p Latino

    Si no despierto (2017) BD-USA REMUX 1080p Latino

    2017
    Si no despierto (2017) BD-USA REMUX 1080p Latino

    1h 39m 2017

    Descargar Si no despierto (2017) BD-USA REMUX 1080p Latino. En principio el 12 de febrero es sólo otro...

    Director: Ry Russo-Young

    Género: Drama

    Actores: Zoey Deutch

  • Si no despierto (2017) BD-EUR REMUX 1080p Latino

    Si no despierto (2017) BD-EUR REMUX 1080p Latino

    2017
    Si no despierto (2017) BD-EUR REMUX 1080p Latino

    1h 39m 2017

    Descargar Si no despierto (2017) BD-EUR REMUX 1080p Latino. En principio el 12 de febrero es sólo otro...

    Director: Ry Russo-Young

    Género: Drama

    Actores: Zoey Deutch

  • La Princesa Prometida (1987) REMUX 1080p Latino

    La Princesa Prometida (1987) REMUX 1080p Latino

    1987
    La Princesa Prometida (1987) REMUX 1080p Latino

    1h 38m 1987

    Descargar La Princesa Prometida (1987) REMUX 1080p Latino. Después de buscar fortuna durante cinco años,...

    Director: Rob Reiner

    Género: Aventura

    Actores: Willy DeVille

descargar Alicia en el país de las maravillas (1951) HD 1080p Latino – CMHDD 1080p 1080p gratis, Alicia en el país de las maravillas (1951) HD 1080p Latino – CMHDD 1080p mega 1 link, Alicia en el país de las maravillas (1951) HD 1080p Latino – CMHDD 1080p pelicula completa, descargar Alicia en el país de las maravillas (1951) HD 1080p Latino – CMHDD 1080p gratis en mega.

Alicia en el país de las maravillas (1951) HD 1080p Latino – CMHDD pelicula full hd, Alicia en el país de las maravillas (1951) HD 1080p Latino – CMHDD mega latino, Alicia en el país de las maravillas (1951) HD 1080p Latino – CMHDD 4k latino, Alicia en el país de las maravillas (1951) HD 1080p Latino – CMHDD pelicula completa, Alicia en el país de las maravillas (1951) HD 1080p Latino – CMHDD descargar gratis, descargar Alicia en el país de las maravillas (1951) HD 1080p Latino – CMHDD pelicula latino, Alicia en el país de las maravillas (1951) HD 1080p Latino – CMHDD 1 link mega, Alicia en el país de las maravillas (1951) HD 1080p Latino – CMHDD 1 link google drive, Alicia en el país de las maravillas (1951) HD 1080p Latino – CMHDD hd 1080p latino.
Comentarios 0