×

¿Problemas para descargar con Mozilla, EDGE? Deshabilita la opción "Abrir vinculos en una pestaña nueva" tal como lo muestra ésta imagen.

Alicia en el país de las maravillas (1951) Full HD 1080p Latino – CMHDD

271 vistas

Información de Alicia en el país de las maravillas (1951) Full HD 1080p Latino – CMHDD

Datos de la película

  • Calidad:
  • Audio: Español Latino AC3 5.1 BLURAY - Ingles DTS 5.1 BLURAY
  • Subtitulos: Español Latino SRT
  • Resolución: 1920x1080p
  • Formato: MKV
  • Codec: H.264
  • Encoder: Dracarys
  • Mediainfo: Clic para Mostrar Datos Ver
  • Format                      : Matroska
    Format version              : Version 4
    File size                   : 3.78 GiB
    Duration                    : 1 h 15 min
    Overall bit rate mode       : Variable
    Overall bit rate            : 7 181 kb/s
    Movie name                  : Alicia en el país de las maravillas (1951) Full HD 1080p Latino - CMHDD
    Encoded date                : UTC 2020-08-07 20:07:45
    Writing application         : mkvmerge v46.0.0 ('No Deeper Escape') 64-bit
    Writing library             : libebml v1.3.10 + libmatroska v1.5.2 / Lavf58.29.100

    Video
    ID                          : 1
    Format                      : AVC
    Format/Info                 : Advanced Video Codec
    Format profile              : High@L4.1
    Format settings             : CABAC / 4 Ref Frames
    Format settings, CABAC      : Yes
    Format settings, Reference  : 4 frames
    Codec ID                    : V_MPEG4/ISO/AVC
    Duration                    : 1 h 15 min
    Bit rate                    : 3 444 kb/s
    Width                       : 1 920 pixels
    Height                      : 1 080 pixels
    Display aspect ratio        : 16:9
    Frame rate mode             : Constant
    Frame rate                  : 23.976 (24000/1001) FPS
    Color space                 : YUV
    Chroma subsampling          : 4:2:0
    Bit depth                   : 8 bits
    Scan type                   : Progressive
    Bits/(Pixel*Frame)          : 0.069
    Stream size                 : 1.81 GiB (48%)
    Writing library             : x264 core 157 r2935 545de2f
    Encoding settings           : cabac=1 / ref=4 / deblock=1:0:0 / analyse=0x3:0x133 / me=tesa / subme=11 / psy=1 / psy_rd=1.00:0.00 / mixed_ref=1 / me_range=24 / chroma_me=1 / trellis=2 / 8x8dct=1 / cqm=0 / deadzone=21,11 / fast_pskip=0 / chroma_qp_offset=-2 / threads=24 / lookahead_threads=6 / sliced_threads=0 / nr=0 / decimate=1 / interlaced=0 / bluray_compat=0 / constrained_intra=0 / bframes=16 / b_pyramid=2 / b_adapt=2 / b_bias=0 / direct=3 / weightb=1 / open_gop=0 / weightp=2 / keyint=240 / keyint_min=24 / scenecut=40 / intra_refresh=0 / rc_lookahead=60 / rc=crf / mbtree=1 / crf=20.0 / qcomp=0.60 / qpmin=0 / qpmax=69 / qpstep=4 / vbv_maxrate=62500 / vbv_bufsize=78125 / crf_max=0.0 / nal_hrd=none / filler=0 / ip_ratio=1.40 / aq=1:1.00
    Default                     : Yes
    Forced                      : No
    Color range                 : Limited
    Color primaries             : BT.709
    Transfer characteristics    : BT.709
    Matrix coefficients         : BT.709

    Audio #1
    ID                          : 2
    Format                      : AC-3
    Format/Info                 : Audio Coding 3
    Commercial name             : Dolby Digital
    Codec ID                    : A_AC3
    Duration                    : 1 h 15 min
    Bit rate mode               : Constant
    Bit rate                    : 640 kb/s
    Channel(s)                  : 6 channels
    Channel layout              : L R C LFE Ls Rs
    Sampling rate               : 48.0 kHz
    Frame rate                  : 31.250 FPS (1536 SPF)
    Compression mode            : Lossy
    Stream size                 : 345 MiB (9%)
    Language                    : Spanish
    Service kind                : Complete Main
    Default                     : Yes
    Forced                      : No

    Audio #2
    ID                          : 3
    Format                      : DTS XLL
    Format/Info                 : Digital Theater Systems
    Commercial name             : DTS-HD Master Audio
    Codec ID                    : A_DTS
    Duration                    : 1 h 15 min
    Bit rate mode               : Variable
    Bit rate                    : 3 081 kb/s
    Channel(s)                  : 6 channels
    Channel layout              : C L R Ls Rs LFE
    Sampling rate               : 48.0 kHz
    Frame rate                  : 93.750 FPS (512 SPF)
    Bit depth                   : 24 bits
    Compression mode            : Lossless
    Stream size                 : 1.62 GiB (43%)
    Language                    : English
    Default                     : No
    Forced                      : No

    Text #1
    ID                          : 4
    Format                      : PGS
    Muxing mode                 : zlib
    Codec ID                    : S_HDMV/PGS
    Codec ID/Info               : Picture based subtitle format used on BDs/HD-DVDs
    Duration                    : 1 h 14 min
    Bit rate                    : 35.5 kb/s
    Count of elements           : 1928
    Stream size                 : 19.0 MiB (0%)
    Language                    : Spanish
    Default                     : No
    Forced                      : No

    Text #2
    ID                          : 5
    Format                      : UTF-8
    Codec ID                    : S_TEXT/UTF8
    Codec ID/Info               : UTF-8 Plain Text
    Duration                    : 1 h 14 min
    Bit rate                    : 57 b/s
    Count of elements           : 963
    Stream size                 : 31.5 KiB (0%)
    Language                    : Spanish
    Default                     : No
    Forced                      : No

    Menu
    00:00:00.000                : :Opening Credits
    00:01:42.185                : :Alice's History Lesson
    00:02:58.053                : :"In a World of My Own"
    00:04:48.705                : :The White Rabbit
    00:07:28.740                : :Curiouser and Curiouser
    00:08:11.700                : :The Bottle on the Table
    00:10:33.091                : :Through the Keyhole in a Bottle
    00:13:14.711                : :Alice Meets Tweedledee and Tweedledum
    00:15:03.528                : :The Walrus and the Carpenter
    00:20:53.294                : :The White Rabbit's House
    00:22:47.157                : :A Lizard with a Ladder
    00:26:21.413                : :A Garden of Talking Flowers
    00:27:16.677                : :"All in the Golden Afternoon"
    00:31:50.117                : :Advice From a Caterpillar
    00:36:34.234                : :More Ups and Downs for Alice
    00:38:30.225                : :The Chesire Cat
    00:41:36.703                : :A Mad Tea Party
    00:47:45.488                : :Who's Got Time?
    00:50:00.623                : :The Tugley Wood
    00:53:58.652                : :"Very Good Advice"
    00:56:08.866                : :The Chesire Cat Again
    00:57:18.477                : :"Painting the Roses Red"
    00:58:58.910                : :The March of the Cards
    01:00:09.981                : :The Queen of Hearts
    01:02:35.710                : :A Game of Croquet
    01:06:52.050                : :Alice's Trial
    01:11:29.827                : :The Chase

  • Peso: 3.78 GiB

Sinopsis

Historia de magia y fantasía en el que la joven Alicia se sumerge en el sorprendente país de las maravillas y conoce a extraordinarios personajes como Tweedledee y Tweedledum, el Sombrerero Loco, La Reina de Corazones y el frenético Conejo Blanco.

Ficha técnica

Video trailer de la película

Enlaces de descarga

Rip de Bluray

Descargar Alicia en el país de las maravillas (1951) Full HD 1080p Latino – CMHDD




Aportes de DPeliculasHDmega la pass es:dpeliculashdmega.org Aportes de CinemaniaHD la pass es:cinemaniahdd.com
Guardado en : Animación , Aventura , Familia , Fantasía

Películas relacionadas

descargar Alicia en el país de las maravillas (1951) Full HD 1080p Latino – CMHDD 1080p gratis, Alicia en el país de las maravillas (1951) Full HD 1080p Latino – CMHDD mega 1 link, Alicia en el país de las maravillas (1951) Full HD 1080p Latino – CMHDD pelicula completa, descargar Alicia en el país de las maravillas (1951) Full HD 1080p Latino – CMHDD gratis en mega.

Alicia en el país de las maravillas (1951) Full HD 1080p Latino – CMHDD pelicula full hd, Alicia en el país de las maravillas (1951) Full HD 1080p Latino – CMHDD mega latino, Alicia en el país de las maravillas (1951) Full HD 1080p Latino – CMHDD 4k latino, Alicia en el país de las maravillas (1951) Full HD 1080p Latino – CMHDD pelicula completa, Alicia en el país de las maravillas (1951) Full HD 1080p Latino – CMHDD descargar gratis, descargar Alicia en el país de las maravillas (1951) Full HD 1080p Latino – CMHDD pelicula latino, Alicia en el país de las maravillas (1951) Full HD 1080p Latino – CMHDD 1 link mega, Alicia en el país de las maravillas (1951) Full HD 1080p Latino – CMHDD 1 link google drive, Alicia en el país de las maravillas (1951) Full HD 1080p Latino – CMHDD hd 1080p latino.
Comentarios 0