×

¿Problemas para descargar con Mozilla, EDGE? Deshabilita la opción "Abrir vinculos en una pestaña nueva" tal como lo muestra ésta imagen.

Alice, cariño (2022) REMUX 1080p Latino

259 vistas

Información de Alice, cariño (2022) REMUX 1080p Latino

Datos de la película

  • Calidad: Full 1080p
  • Audio: Español Latino AC3 5.1 WEB-DL - Ingles DTS 5.1 BLURAY
  • Subtitulos: Español Latino PGS - Ingles PGS
  • Resolución: 1920x1080p
  • Formato: MKV
  • Codec: H.264
  • Encoder: Melkor
  • Mediainfo: Clic para Mostrar Datos Ver
  • Alice Cariño (2022) REMUX 1080p Latino.mkv
    Format                      : Matroska
    Format version              : Version 4
    File size                   : 18.5 GiB
    Duration                    : 1 h 29 min
    Overall bit rate mode       : Variable
    Overall bit rate            : 29.7 Mb/s
    Movie name                  : Alice Darling (2022) CinemaniaHDD.Net
    Encoded date                : UTC 2023-03-15 06:12:05
    Writing application         : mkvmerge v56.1.0 ('My Friend') 64-bit
    Writing library             : libebml v1.4.2 + libmatroska v1.6.4
    Attachments                 : CINEMANIAHD.png
    Site                        : CinemaniaHDD.Net
    Uploader                    : Melkor

    Video
    ID                          : 1
    ID in the original source m : 4113 (0x1011)
    Format                      : AVC
    Format/Info                 : Advanced Video Codec
    Format profile              : High@L4.1
    Format settings             : CABAC / 4 Ref Frames
    Format settings, CABAC      : Yes
    Format settings, Reference  : 4 frames
    Codec ID                    : V_MPEG4/ISO/AVC
    Duration                    : 1 h 29 min
    Bit rate mode               : Variable
    Bit rate                    : 25.0 Mb/s
    Maximum bit rate            : 35.0 Mb/s
    Width                       : 1 920 pixels
    Height                      : 1 080 pixels
    Display aspect ratio        : 16:9
    Frame rate mode             : Constant
    Frame rate                  : 23.976 (24000/1001) FPS
    Standard                    : NTSC
    Color space                 : YUV
    Chroma subsampling          : 4:2:0
    Bit depth                   : 8 bits
    Scan type                   : Progressive
    Bits/(Pixel*Frame)          : 0.503
    Stream size                 : 15.6 GiB (84%)
    Title                       : REMUX HD1080p [CinemaniaHDD]
    Default                     : Yes
    Forced                      : Yes
    Color range                 : Limited
    Color primaries             : BT.709
    Transfer characteristics    : BT.709
    Matrix coefficients         : BT.709
    Original source medium      : Blu-ray

    Audio #1
    ID                          : 2
    Format                      : AC-3
    Format/Info                 : Audio Coding 3
    Commercial name             : Dolby Digital
    Codec ID                    : A_AC3
    Duration                    : 1 h 29 min
    Bit rate mode               : Constant
    Bit rate                    : 640 kb/s
    Channel(s)                  : 6 channels
    Channel layout              : L R C LFE Ls Rs
    Sampling rate               : 48.0 kHz
    Frame rate                  : 31.250 FPS (1536 SPF)
    Compression mode            : Lossy
    Delay relative to video     : 6 ms
    Stream size                 : 409 MiB (2%)
    Title                       : Español Latino AC3 [CinemaniaHDD]
    Language                    : Spanish
    Service kind                : Complete Main
    Default                     : Yes
    Forced                      : Yes

    Audio #2
    ID                          : 3
    Format                      : E-AC-3
    Format/Info                 : Enhanced AC-3
    Commercial name             : Dolby Digital Plus
    Codec ID                    : A_EAC3
    Duration                    : 1 h 29 min
    Bit rate mode               : Constant
    Bit rate                    : 640 kb/s
    Channel(s)                  : 6 channels
    Channel layout              : L R C LFE Ls Rs
    Sampling rate               : 48.0 kHz
    Frame rate                  : 31.250 FPS (1536 SPF)
    Compression mode            : Lossy
    Delay relative to video     : 6 ms
    Stream size                 : 409 MiB (2%)
    Title                       : Español Latino EAC3 [CinemaniaHDD]
    Language                    : Spanish
    Service kind                : Complete Main
    Default                     : No
    Forced                      : No

    Audio #3
    ID                          : 4
    ID in the original source m : 4352 (0x1100)
    Format                      : DTS XLL
    Format/Info                 : Digital Theater Systems
    Commercial name             : DTS-HD Master Audio
    Codec ID                    : A_DTS
    Duration                    : 1 h 29 min
    Bit rate mode               : Variable
    Bit rate                    : 3 349 kb/s
    Channel(s)                  : 6 channels
    Channel layout              : C L R Ls Rs LFE
    Sampling rate               : 48.0 kHz
    Frame rate                  : 93.750 FPS (512 SPF)
    Bit depth                   : 24 bits
    Compression mode            : Lossless
    Stream size                 : 2.09 GiB (11%)
    Title                       : Ingles [CinemaniaHDD]
    Language                    : English
    Default                     : No
    Forced                      : No
    Original source medium      : Blu-ray

    Text #1
    ID                          : 5
    ID in the original source m : 4609 (0x1201)
    Format                      : PGS
    Muxing mode                 : zlib
    Codec ID                    : S_HDMV/PGS
    Codec ID/Info               : Picture based subtitle format used on BDs/HD-DVDs
    Duration                    : 1 h 27 min
    Bit rate                    : 21.5 kb/s
    Count of elements           : 1538
    Stream size                 : 13.4 MiB (0%)
    Title                       : Español-PGS [CinemaniaHDD]
    Language                    : Spanish
    Default                     : No
    Forced                      : No
    Original source medium      : Blu-ray

    Text #2
    ID                          : 6
    ID in the original source m : 4608 (0x1200)
    Format                      : PGS
    Muxing mode                 : zlib
    Codec ID                    : S_HDMV/PGS
    Codec ID/Info               : Picture based subtitle format used on BDs/HD-DVDs
    Duration                    : 1 h 28 min
    Bit rate                    : 27.0 kb/s
    Count of elements           : 1902
    Stream size                 : 17.1 MiB (0%)
    Title                       : Ingles-PGS [CinemaniaHDD]
    Language                    : English
    Default                     : No
    Forced                      : No
    Original source medium      : Blu-ray

    Text #3
    ID                          : 7
    Format                      : UTF-8
    Codec ID                    : S_TEXT/UTF8
    Codec ID/Info               : UTF-8 Plain Text
    Duration                    : 1 h 4 min
    Bit rate                    : 1 b/s
    Count of elements           : 23
    Stream size                 : 869 Bytes (0%)
    Title                       : Forzados-SRT [CinemaniaHDD]
    Language                    : Spanish
    Default                     : Yes
    Forced                      : Yes

    Text #4
    ID                          : 8
    Format                      : UTF-8
    Codec ID                    : S_TEXT/UTF8
    Codec ID/Info               : UTF-8 Plain Text
    Duration                    : 1 h 19 min
    Bit rate                    : 34 b/s
    Count of elements           : 787
    Stream size                 : 20.2 KiB (0%)
    Title                       : Español-SRT [CinemaniaHDD]
    Language                    : Spanish
    Default                     : No
    Forced                      : No

    Menu
    00:00:00.000                : Chapter 01
    00:07:00.420                : Chapter 02
    00:13:21.801                : Chapter 03
    00:22:10.954                : Chapter 04
    00:31:30.889                : Chapter 05
    00:37:07.225                : Chapter 06
    00:45:20.718                : Chapter 07
    00:52:54.963                : Chapter 08
    01:02:17.734                : Chapter 09
    01:08:11.087                : Chapter 10
    01:15:24.520                : Chapter 11
    01:23:57.032                : Chapter 12

  • Peso: 18.5 GiB

Sinopsis

Descargar Alice, cariño (2022) REMUX 1080p Latino. Alice (Anna Kendrick) es una mujer al límite. A sus treinta años, vive una situación de maltrato psicológico perpetuado por su novio, Simon, que la tiene atrapada en un estado de parálisis. Durante unas vacaciones en el campo con sus dos mejores amigas, Alice redescubrirá la esencia de sí misma y por fin adquirirá la perspectiva que tanto necesita. Sin embargo, la venganza de Simon por la fuga inesperada de su pareja es tan inevitable como demoledora y, una vez desatada, pondrá a prueba la resistencia de Alice, su valor, y la fortaleza de su lazo con sus amigas.

Ficha técnica

  • Titulo original: Alice, Darling
  • Fecha de lanzamiento: 30-12-2022 (Canada, United Kingdom, United States of America)
  • Director: Mary Nighy
  • Género: Drama, Misterio, Remux, Suspenso

Video trailer de la película

Enlaces de descarga

Rip de Bluray

Descargar Alice, cariño (2022) REMUX 1080p Latino




Aportes de DPeliculasHDmega la pass es:dpeliculashdmega.org Aportes de CinemaniaHD la pass es:cinemaniahdd.com Aportes recientes:cinemaniahdd.net
Guardado en : Drama , Misterio , Remux , Suspenso

Películas relacionadas

  • Amor, Mentiras y Sangre (2024) REMUX 1080p Latino

    Amor, Mentiras y Sangre (2024) REMUX 1080p Latino

    2024
    Amor, Mentiras y Sangre (2024) REMUX 1080p Latino

    1h 44m 2024

    Descargar Amor, Mentiras y Sangre (2024) REMUX 1080p Latino. Jackie está decidida a triunfar como culturista...

    Director: William Merritt Thomas

    Género: Crimen

    Actores: Tait Fletcher

  • Amor, Mentiras y Sangre (2024) HD 1080p Latino

    Amor, Mentiras y Sangre (2024) HD 1080p Latino

    2024
    Amor, Mentiras y Sangre (2024) HD 1080p Latino

    1h 44m 2024

    Descargar Amor, Mentiras y Sangre (2024) HD 1080p Latino. Jackie está decidida a triunfar como culturista...

    Director: William Merritt Thomas

    Género: Crimen

    Actores: Tait Fletcher

  • Seven Pounds (2008) REMUX 1080p Latino – CMHDD

    Seven Pounds (2008) REMUX 1080p Latino – CMHDD

    2008
    Seven Pounds (2008) REMUX 1080p Latino – CMHDD

    2h 3m 2008

    Ben Thomas es un inspector de Hacienda que comienza a contactar con determinadas personas con la aparente...

    Director: Paul Schneider

    Género: Drama

    Actores: Woody Harrelson

descargar Alice, cariño (2022) REMUX 1080p Latino Full 1080p 1080p gratis, Alice, cariño (2022) REMUX 1080p Latino Full 1080p mega 1 link, Alice, cariño (2022) REMUX 1080p Latino Full 1080p pelicula completa, descargar Alice, cariño (2022) REMUX 1080p Latino Full 1080p gratis en mega.

Alice, cariño (2022) REMUX 1080p Latino pelicula full hd, Alice, cariño (2022) REMUX 1080p Latino mega latino, Alice, cariño (2022) REMUX 1080p Latino 4k latino, Alice, cariño (2022) REMUX 1080p Latino pelicula completa, Alice, cariño (2022) REMUX 1080p Latino descargar gratis, descargar Alice, cariño (2022) REMUX 1080p Latino pelicula latino, Alice, cariño (2022) REMUX 1080p Latino 1 link mega, Alice, cariño (2022) REMUX 1080p Latino 1 link google drive, Alice, cariño (2022) REMUX 1080p Latino hd 1080p latino.
Comentarios 0