×

¿Problemas para descargar con Mozilla, EDGE? Deshabilita la opción "Abrir vinculos en una pestaña nueva" tal como lo muestra ésta imagen.

Alguien, En Algun Lugar (2019) HD 1080p Latino

114 vistas

Información de Alguien, En Algun Lugar (2019) HD 1080p Latino

Datos de la película

  • Calidad: 1080p
  • Audio: Se especifica abajo de la Sinopsis
  • Subtitulos: Español Latino SRT- FORZADOS SRT
  • Resolución: 1920x1038p
  • Formato: MKV
  • Codec: H.264
  • Encoder: Melkor
  • Mediainfo: Clic para Mostrar Datos Ver
  • Alguien, En Algun Lugar (2019) HD 1080p Latino.mkv
    Format                      : Matroska
    Format version              : Version 4
    File size                   : 3.20 GiB
    Duration                    : 1 h 50 min
    Overall bit rate            : 4 161 kb/s
    Movie name                  : Deux Moi (2019) CinemaniaHDD.Net
    Encoded date                : UTC 2022-06-22 06:30:26
    Writing application         : mkvmerge v56.1.0 ('My Friend') 64-bit
    Writing library             : libebml v1.4.2 + libmatroska v1.6.4
    Attachments                 : CINEMANIAHD.png

    Video
    ID                          : 1
    Format                      : AVC
    Format/Info                 : Advanced Video Codec
    Format profile              : High@L4.1
    Format settings             : CABAC / 4 Ref Frames
    Format settings, CABAC      : Yes
    Format settings, Reference  : 4 frames
    Codec ID                    : V_MPEG4/ISO/AVC
    Duration                    : 1 h 50 min
    Bit rate                    : 3 500 kb/s
    Width                       : 1 920 pixels
    Height                      : 1 038 pixels
    Display aspect ratio        : 1.85:1
    Frame rate mode             : Constant
    Frame rate                  : 23.976 (24000/1001) FPS
    Color space                 : YUV
    Chroma subsampling          : 4:2:0
    Bit depth                   : 8 bits
    Scan type                   : Progressive
    Bits/(Pixel*Frame)          : 0.073
    Stream size                 : 2.66 GiB (83%)
    Title                       : HD1080p [CinemaniaHDD]
    Writing library             : x264 core 163 r3059 b684ebe0
    Encoding settings           : cabac=1 / ref=4 / deblock=1:-1:-1 / analyse=0x3:0x133 / me=umh / subme=9 / psy=1 / psy_rd=1.00:0.15 / mixed_ref=1 / me_range=16 / chroma_me=1 / trellis=2 / 8x8dct=1 / cqm=0 / deadzone=21,11 / fast_pskip=1 / chroma_qp_offset=-3 / threads=24 / lookahead_threads=2 / sliced_threads=0 / nr=0 / decimate=1 / interlaced=0 / bluray_compat=0 / constrained_intra=0 / bframes=3 / b_pyramid=2 / b_adapt=2 / b_bias=0 / direct=3 / weightb=1 / open_gop=0 / weightp=2 / keyint=240 / keyint_min=24 / scenecut=40 / intra_refresh=0 / rc_lookahead=60 / rc=abr / mbtree=1 / bitrate=3500 / ratetol=1.0 / qcomp=0.60 / qpmin=0 / qpmax=69 / qpstep=4 / vbv_maxrate=62500 / vbv_bufsize=78125 / nal_hrd=none / filler=0 / ip_ratio=1.40 / aq=1:1.00
    Default                     : Yes
    Forced                      : Yes
    Color range                 : Limited
    Color primaries             : BT.709
    Transfer characteristics    : BT.709
    Matrix coefficients         : BT.709

    Audio #1
    ID                          : 2
    Format                      : AC-3
    Format/Info                 : Audio Coding 3
    Commercial name             : Dolby Digital
    Codec ID                    : A_AC3
    Duration                    : 1 h 50 min
    Bit rate mode               : Constant
    Bit rate                    : 256 kb/s
    Channel(s)                  : 2 channels
    Channel layout              : L R
    Sampling rate               : 48.0 kHz
    Frame rate                  : 31.250 FPS (1536 SPF)
    Compression mode            : Lossy
    Delay relative to video     : -5 ms
    Stream size                 : 202 MiB (6%)
    Title                       : Español Latino [CinemaniaHDD]
    Language                    : Spanish
    Service kind                : Complete Main
    Default                     : Yes
    Forced                      : Yes

    Audio #2
    ID                          : 3
    Format                      : AC-3
    Format/Info                 : Audio Coding 3
    Commercial name             : Dolby Digital
    Codec ID                    : A_AC3
    Duration                    : 1 h 50 min
    Bit rate mode               : Constant
    Bit rate                    : 448 kb/s
    Channel(s)                  : 6 channels
    Channel layout              : L R C LFE Ls Rs
    Sampling rate               : 48.0 kHz
    Frame rate                  : 31.250 FPS (1536 SPF)
    Compression mode            : Lossy
    Delay relative to video     : -5 ms
    Stream size                 : 353 MiB (11%)
    Title                       : Frances [CinemaniaHDD]
    Language                    : French
    Service kind                : Complete Main
    Default                     : No
    Forced                      : No

    Text #1
    ID                          : 4
    Format                      : UTF-8
    Codec ID                    : S_TEXT/UTF8
    Codec ID/Info               : UTF-8 Plain Text
    Duration                    : 1 h 43 min
    Bit rate                    : 0 b/s
    Count of elements           : 2
    Stream size                 : 48.0 Bytes (0%)
    Title                       : Forzados-SRT [CinemaniaHDD]
    Language                    : Spanish
    Default                     : Yes
    Forced                      : Yes

    Text #2
    ID                          : 5
    Format                      : UTF-8
    Codec ID                    : S_TEXT/UTF8
    Codec ID/Info               : UTF-8 Plain Text
    Duration                    : 1 h 43 min
    Bit rate                    : 61 b/s
    Count of elements           : 1549
    Stream size                 : 46.7 KiB (0%)
    Title                       : Español-SRT [CinemaniaHDD]
    Language                    : Spanish
    Default                     : No
    Forced                      : No

    Menu
    00:00:00.000                : Chapter 01
    00:09:34.115                : Chapter 02
    00:20:51.625                : Chapter 03
    00:30:21.820                : Chapter 04
    00:43:44.955                : Chapter 05
    00:54:03.657                : Chapter 06
    01:03:48.950                : Chapter 07
    01:13:58.434                : Chapter 08
    01:22:39.788                : Chapter 09
    01:28:49.324                : Chapter 10
    01:37:53.659                : Chapter 11
    01:46:14.201                : Chapter 12

  • Peso: 3.20 GiB

Sinopsis

Descargar Alguien, En Algun Lugar (2019) HD 1080p Latino. Rémy y Mélanie tienen treinta años y viven en el mismo distrito de París. Ella acude a múltiples citas fallidas por las redes sociales mientras que él lucha por hallar una conexión con alguien. Ambos son víctimas de la soledad de las grandes ciudades, en una era hiperconectada, donde encontrarse debería ser más sencillo. Dos personas con dos caminos, que sin saberlo, toman una ruta que los llevará hacia una misma dirección…

Español Latino AC3 2.0 Web – Frances AC3 5.1 BD

Ficha técnica

Video trailer de la película

Enlaces de descarga

Rip de Bluray

Descargar Alguien, En Algun Lugar (2019) HD 1080p Latino




Aportes de DPeliculasHDmega la pass es:dpeliculashdmega.org Aportes de CinemaniaHD la pass es:cinemaniahdd.com
Guardado en : Comedia , Drama , HD 1080p , Romance

Películas relacionadas

  • Beauty (2022) NF Web-DL 1080p Latino

    Beauty (2022) NF Web-DL 1080p Latino

    2022
    Beauty (2022) NF Web-DL 1080p Latino

    0h 0m 2022

    Descargar Beauty (2022) NF Web-DL 1080p Latino. Una joven y talentosa cantante negra, lucha por mantener...

    Director: Andrew Dosunmu

    Género: Drama

    Actores: Sharon Stone

  • Ms. Marvel (2022) Temporada 1 WEB-DL 1080p Latino

    Ms. Marvel (2022) Temporada 1 WEB-DL 1080p Latino

    2022
    Ms. Marvel (2022) Temporada 1 WEB-DL 1080p Latino

    0h 50m 2022

    Descargar Ms. Marvel (2022) Temporada 1 WEB-DL 1080p Latino. Una gran estudiante, ávida jugadora, y...

    Director: Bisha K. Ali

    Género: Action & Adventure

    Actores: Zenobia Shroff

  • Llamas de venganza (2022) HD 1080p Latino

    Llamas de venganza (2022) HD 1080p Latino

    2022
    Llamas de venganza (2022) HD 1080p Latino

    0h 0m 2022

    Descargar Llamas de venganza (2022) HD 1080p Latino. Andy y Vicky son unos padres que llevan más de...

    Director: Keith Thomas

    Género: Fantasía

    Actores: Zac Efron

Alguien, En Algun Lugar (2019) HD 1080p Latino pelicula full hd, Alguien, En Algun Lugar (2019) HD 1080p Latino mega latino, Alguien, En Algun Lugar (2019) HD 1080p Latino 4k latino, Alguien, En Algun Lugar (2019) HD 1080p Latino pelicula completa, Alguien, En Algun Lugar (2019) HD 1080p Latino descargar gratis, descargar Alguien, En Algun Lugar (2019) HD 1080p Latino pelicula latino, Alguien, En Algun Lugar (2019) HD 1080p Latino 1 link mega, Alguien, En Algun Lugar (2019) HD 1080p Latino 1 link google drive, Alguien, En Algun Lugar (2019) HD 1080p Latino hd 1080p latino.
Comentarios 0