×

¿Problemas para descargar con Mozilla, EDGE? Deshabilita la opción "Abrir vinculos en una pestaña nueva" tal como lo muestra ésta imagen.

ALF (1986 – 1989) [Serie Completa] WEB-DL 1080p Latino

874 vistas

Información de ALF (1986 – 1989) [Serie Completa] WEB-DL 1080p Latino

Datos de la película

  • Calidad: 1080p
  • Audio: Español Latino AC3 2.0 WEB-DL - Ingles AC3 2.0 WEB-DL
  • Subtitulos: No
  • Resolución: 1440x1080
  • Formato: MKV
  • Codec: H.264
  • Encoder: cinemaniahdd
  • Mediainfo: Clic para Mostrar Datos Ver
  • Alf T04E01 WEB-DL 1080p Latino [CNMNHDD].mkv
    Format                      : Matroska
    Format version              : Version 4
    File size                   : 1.44 GiB
    Duration                    : 22 min 51 s
    Overall bit rate mode       : Variable
    Overall bit rate            : 9 013 kb/s
    Movie name                  : Alf T04E03 - CinemaniaHDD.Net
    Encoded date                : UTC 2021-12-24 02:46:54
    Writing application         : mkvmerge v58.0.0 ('Supper's Ready') 32-bit
    Writing library             : libebml v1.4.2 + libmatroska v1.6.4

    Video
    ID                          : 1
    Format                      : AVC
    Format/Info                 : Advanced Video Codec
    Format profile              : High@L4
    Format settings             : CABAC / 4 Ref Frames
    Format settings, CABAC      : Yes
    Format settings, Reference  : 4 frames
    Codec ID                    : V_MPEG4/ISO/AVC
    Duration                    : 22 min 51 s
    Bit rate mode               : Variable
    Bit rate                    : 7 000 kb/s
    Width                       : 1 440 pixels
    Height                      : 1 080 pixels
    Display aspect ratio        : 4:3
    Frame rate mode             : Constant
    Frame rate                  : 23.976 (24000/1001) FPS
    Color space                 : YUV
    Chroma subsampling          : 4:2:0
    Bit depth                   : 8 bits
    Scan type                   : Progressive
    Bits/(Pixel*Frame)          : 0.221
    Stream size                 : 1.32 GiB (91%)
    Title                       : CinemaniaHDD
    Default                     : Yes
    Forced                      : No
    Color range                 : Limited
    Color primaries             : BT.709
    Transfer characteristics    : BT.709
    Matrix coefficients         : BT.709

    Audio #1
    ID                          : 2
    Format                      : AC-3
    Format/Info                 : Audio Coding 3
    Commercial name             : Dolby Digital
    Codec ID                    : A_AC3
    Duration                    : 22 min 51 s
    Bit rate mode               : Constant
    Bit rate                    : 256 kb/s
    Channel(s)                  : 2 channels
    Channel layout              : L R
    Sampling rate               : 48.0 kHz
    Frame rate                  : 31.250 FPS (1536 SPF)
    Compression mode            : Lossy
    Stream size                 : 62.8 MiB (4%)
    Title                       : Español latino [CinemaniaHDD]
    Language                    : Spanish
    Service kind                : Complete Main
    Default                     : Yes
    Forced                      : No

    Audio #2
    ID                          : 3
    Format                      : AC-3
    Format/Info                 : Audio Coding 3
    Commercial name             : Dolby Digital
    Codec ID                    : A_AC3
    Duration                    : 22 min 51 s
    Bit rate mode               : Constant
    Bit rate                    : 256 kb/s
    Channel(s)                  : 2 channels
    Channel layout              : L R
    Sampling rate               : 48.0 kHz
    Frame rate                  : 31.250 FPS (1536 SPF)
    Compression mode            : Lossy
    Stream size                 : 62.8 MiB (4%)
    Title                       : Inglés [CinemaniaHDD]
    Language                    : English
    Service kind                : Complete Main
    Default                     : No
    Forced                      : No

    Text #1
    ID                          : 4
    Format                      : UTF-8
    Codec ID                    : S_TEXT/UTF8
    Codec ID/Info               : UTF-8 Plain Text
    Duration                    : 2 s 169 ms
    Bit rate                    : 151 b/s
    Count of elements           : 1
    Stream size                 : 41.0 Bytes (0%)
    Title                       : Forzados [CinemaniaHDD]
    Language                    : Spanish
    Default                     : No
    Forced                      : Yes

    Text #2
    ID                          : 5
    Format                      : UTF-8
    Codec ID                    : S_TEXT/UTF8
    Codec ID/Info               : UTF-8 Plain Text
    Duration                    : 22 min 1 s
    Bit rate                    : 77 b/s
    Count of elements           : 354
    Stream size                 : 12.5 KiB (0%)
    Title                       : Español latino [CinemaniaHDD]
    Language                    : Spanish
    Default                     : No
    Forced                      : No

    Text #3
    ID                          : 6
    Format                      : UTF-8
    Codec ID                    : S_TEXT/UTF8
    Codec ID/Info               : UTF-8 Plain Text
    Duration                    : 22 min 5 s
    Bit rate                    : 83 b/s
    Count of elements           : 379
    Stream size                 : 13.6 KiB (0%)
    Title                       : Inglés [CinemaniaHDD]
    Language                    : English
    Default                     : No
    Forced                      : No

    Menu
    00:01:40.308                : Intro

     

  • Peso: 1.44 GiB Aprox ---- 151 GiB in 99 Chapters.

Sinopsis

Los integrantes de una familia corriente se ven atrapados en un evento extraordinario cuando un Amorfismo Lejano Fantástico aterriza en su cochera y se une a la familia.

 

Ficha técnica

Video trailer de la película

Enlaces de descarga

Rip de Bluray

Descargar ALF (1986 – 1989) [Serie Completa] WEB-DL 1080p Latino


Aportes de DPeliculasHDmega la pass es:dpeliculashdmega.org Aportes de CinemaniaHD la pass es:cinemaniahdd.com
Guardado en : Comedia , Drama , Familia , Series

Películas relacionadas

  • Mi amigo el dragón (2016) Full HD 1080p Latino

    Mi amigo el dragón (2016) Full HD 1080p Latino

    2016
    Mi amigo el dragón (2016) Full HD 1080p Latino

    1h 43m 2016

    Descargar Mi amigo el dragón (2016) Full HD 1080p Latino. Durante años el Sr. Meacham, un viejo tallador...

    Director: Joe Nolan

    Género: Aventura

    Actores: William J. Rawbone

  • Mi amigo el dragón (2016) REMUX 1080p Latino

    Mi amigo el dragón (2016) REMUX 1080p Latino

    2016
    Mi amigo el dragón (2016) REMUX 1080p Latino

    1h 43m 2016

    Descargar Mi amigo el dragón (2016) REMUX 1080p Latino. Durante años el Sr. Meacham, un viejo tallador...

    Director: Joe Nolan

    Género: Aventura

    Actores: William J. Rawbone

  • El discurso del Rey (2010) 1080p Latino

    El discurso del Rey (2010) 1080p Latino

    2010
    El discurso del Rey (2010) 1080p Latino

    1h 58m 2010

    Descargar El discurso del Rey (2010) 1080p Latino. El duque de York se convirtió en rey de Gran Bretaña...

    Director: Tom Hooper

    Género: Drama

    Actores: Tony Earnshaw

  • El discurso del Rey (2010) Full HD 1080p Latino

    El discurso del Rey (2010) Full HD 1080p Latino

    2010
    El discurso del Rey (2010) Full HD 1080p Latino

    1h 58m 2010

    Descargar El discurso del Rey (2010) Full HD 1080p Latino. El duque de York se convirtió en rey de Gran...

    Director: Tom Hooper

    Género: Drama

    Actores: Tony Earnshaw

  • El discurso del Rey (2010) REMUX 1080p Latino

    El discurso del Rey (2010) REMUX 1080p Latino

    2010
    El discurso del Rey (2010) REMUX 1080p Latino

    1h 58m 2010

    Descargar El discurso del Rey (2010) REMUX 1080p Latino. El duque de York se convirtió en rey de Gran...

    Director: Tom Hooper

    Género: Drama

    Actores: Tony Earnshaw

descargar ALF (1986 – 1989) [Serie Completa] WEB-DL 1080p Latino 1080p 1080p gratis, ALF (1986 – 1989) [Serie Completa] WEB-DL 1080p Latino 1080p mega 1 link, ALF (1986 – 1989) [Serie Completa] WEB-DL 1080p Latino 1080p serie completa, descargar ALF (1986 – 1989) [Serie Completa] WEB-DL 1080p Latino 1080p gratis en mega.

ALF (1986 – 1989) [Serie Completa] WEB-DL 1080p Latino pelicula full hd, ALF (1986 – 1989) [Serie Completa] WEB-DL 1080p Latino mega latino, ALF (1986 – 1989) [Serie Completa] WEB-DL 1080p Latino 4k latino, ALF (1986 – 1989) [Serie Completa] WEB-DL 1080p Latino pelicula completa, ALF (1986 – 1989) [Serie Completa] WEB-DL 1080p Latino descargar gratis, descargar ALF (1986 – 1989) [Serie Completa] WEB-DL 1080p Latino pelicula latino, ALF (1986 – 1989) [Serie Completa] WEB-DL 1080p Latino 1 link mega, ALF (1986 – 1989) [Serie Completa] WEB-DL 1080p Latino 1 link google drive, ALF (1986 – 1989) [Serie Completa] WEB-DL 1080p Latino hd 1080p latino.
Comentarios 8
  • patrickz - 26 diciembre, 2021

    los pobres tb queremos tener series en buena calidad 🙁
    pongan links Publicos porfa

    • Dracarys - 26 diciembre, 2021

      Solo VIP

  • Anónimo - 25 diciembre, 2021

    No la pondrán en público????? :´(

    • CinemaniaHDD - 25 diciembre, 2021

      NO.

  • Matias - 25 diciembre, 2021

    Para que lo subis solo para privado? Para eso pone una seccion para los vip

    • CinemaniaHDD - 25 diciembre, 2021

      ok, siga buscando cosas free en la seccion free.

  • Gabriel - 24 diciembre, 2021

    Lo subiran a paste publico?.

    • CinemaniaHDD - 25 diciembre, 2021

      no