×

¿Problemas para descargar con Mozilla, EDGE? Deshabilita la opción "Abrir vinculos en una pestaña nueva" tal como lo muestra ésta imagen.

Alex Rider (2021) Segunda Temporada AMZN WEB-DL 1080p Latino

114 vistas

Información de Alex Rider (2021) Segunda Temporada AMZN WEB-DL 1080p Latino

Datos de la película

  • Calidad: 1080p
  • Audio: Español Latino AC3 5.1 WEB-DL - Ingles AC3 5.1 WEB-DL
  • Subtitulos: Español Latino SRT- FORZADOS SRT
  • Resolución: 1920x960
  • Formato: MKV
  • Codec: H.264
  • Encoder: cinemaniahdd
  • Mediainfo: Clic para Mostrar Datos Ver
  • Alex Rider S02\Alex Rider T02E08 AMZN WEB-DL 1080p Latino [CNMNHDD].mkv
    Format                      : Matroska
    Format version              : Version 4
    File size                   : 3.41 GiB
    Duration                    : 43 min 10 s
    Overall bit rate            : 11.3 Mb/s
    Movie name                  : Alex Rider T02E08 - CinemaniaHDD.Net
    Encoded date                : UTC 2021-12-04 01:54:29
    Writing application         : mkvmerge v56.1.0 ('My Friend') 64-bit
    Writing library             : libebml v1.4.2 + libmatroska v1.6.4

    Video
    ID                          : 1
    Format                      : AVC
    Format/Info                 : Advanced Video Codec
    Format profile              : High@L4
    Format settings             : CABAC / 4 Ref Frames
    Format settings, CABAC      : Yes
    Format settings, Reference  : 4 frames
    Codec ID                    : V_MPEG4/ISO/AVC
    Duration                    : 43 min 10 s
    Bit rate mode               : Constant
    Bit rate                    : 9 387 kb/s
    Nominal bit rate            : 10 000 kb/s
    Width                       : 1 920 pixels
    Height                      : 960 pixels
    Display aspect ratio        : 2.000
    Frame rate mode             : Constant
    Frame rate                  : 23.976 (24000/1001) FPS
    Color space                 : YUV
    Chroma subsampling          : 4:2:0
    Bit depth                   : 8 bits
    Scan type                   : Progressive
    Bits/(Pixel*Frame)          : 0.212
    Stream size                 : 2.83 GiB (83%)
    Title                       : CinemaniaHDD
    Default                     : Yes
    Forced                      : No
    Color range                 : Limited
    Color primaries             : BT.709
    Transfer characteristics    : BT.709
    Matrix coefficients         : BT.709

    Audio #1
    ID                          : 2
    Format                      : AC-3
    Format/Info                 : Audio Coding 3
    Commercial name             : Dolby Digital
    Codec ID                    : A_AC3
    Duration                    : 43 min 10 s
    Bit rate mode               : Constant
    Bit rate                    : 640 kb/s
    Channel(s)                  : 6 channels
    Channel layout              : L R C LFE Ls Rs
    Sampling rate               : 48.0 kHz
    Frame rate                  : 31.250 FPS (1536 SPF)
    Compression mode            : Lossy
    Stream size                 : 198 MiB (6%)
    Title                       : Español latino [CinemaniaHDD]
    Language                    : Spanish
    Service kind                : Complete Main
    Default                     : Yes
    Forced                      : No

    Audio #2
    ID                          : 3
    Format                      : E-AC-3
    Format/Info                 : Enhanced AC-3
    Commercial name             : Dolby Digital Plus
    Codec ID                    : A_EAC3
    Duration                    : 43 min 10 s
    Bit rate mode               : Constant
    Bit rate                    : 640 kb/s
    Channel(s)                  : 6 channels
    Channel layout              : L R C LFE Ls Rs
    Sampling rate               : 48.0 kHz
    Frame rate                  : 31.250 FPS (1536 SPF)
    Compression mode            : Lossy
    Stream size                 : 198 MiB (6%)
    Title                       : Español latino / E-AC3 [CinemaniaHDD]
    Language                    : Spanish
    Service kind                : Complete Main
    Default                     : No
    Forced                      : No

    Audio #3
    ID                          : 4
    Format                      : E-AC-3
    Format/Info                 : Enhanced AC-3
    Commercial name             : Dolby Digital Plus
    Codec ID                    : A_EAC3
    Duration                    : 43 min 10 s
    Bit rate mode               : Constant
    Bit rate                    : 640 kb/s
    Channel(s)                  : 6 channels
    Channel layout              : L R C LFE Ls Rs
    Sampling rate               : 48.0 kHz
    Frame rate                  : 31.250 FPS (1536 SPF)
    Compression mode            : Lossy
    Stream size                 : 198 MiB (6%)
    Title                       : Inglés [CinemaniaHDD]
    Language                    : English
    Service kind                : Complete Main
    Default                     : No
    Forced                      : No

    Text #1
    ID                          : 5
    Format                      : UTF-8
    Codec ID                    : S_TEXT/UTF8
    Codec ID/Info               : UTF-8 Plain Text
    Duration                    : 42 min 47 s
    Bit rate                    : 56 b/s
    Count of elements           : 596
    Stream size                 : 17.7 KiB (0%)
    Title                       : Inglés [CinemaniaHDD]
    Language                    : English
    Default                     : No
    Forced                      : No

    Text #2
    ID                          : 6
    Format                      : UTF-8
    Codec ID                    : S_TEXT/UTF8
    Codec ID/Info               : UTF-8 Plain Text
    Duration                    : 42 min 31 s
    Bit rate                    : 50 b/s
    Count of elements           : 522
    Stream size                 : 15.8 KiB (0%)
    Title                       : Español latino [CinemaniaHDD]
    Language                    : Spanish
    Default                     : No
    Forced                      : No

    Text #3
    ID                          : 7
    Format                      : UTF-8
    Codec ID                    : S_TEXT/UTF8
    Codec ID/Info               : UTF-8 Plain Text
    Duration                    : 22 min 18 s
    Bit rate                    : 0 b/s
    Count of elements           : 4
    Stream size                 : 135 Bytes (0%)
    Title                       : Forzados [CinemaniaHDD]
    Language                    : Spanish
    Default                     : Yes
    Forced                      : Yes

     

     

  • Peso: 3.41 GiB Aprox ---- 26 GiB in 8 Chapters.

Sinopsis

Tras la muerte de su tío y una misión mortal para acabar con Point Blanc, Alex Rider está ansioso por dejar atrás el pasado y reconstruir su vida. Pero cuando la familia de un amigo es víctima de un terrible ataque y lo lleva de vuelta al mundo de los espías, Alex debe desentrañar un plan siniestro para tomar el control de la defensa de los Estados Unidos.

Ficha técnica

Video trailer de la película

Enlaces de descarga

Rip de Bluray

Descargar Alex Rider (2021) Segunda Temporada AMZN WEB-DL 1080p Latino




Aportes de DPeliculasHDmega la pass es:dpeliculashdmega.org Aportes de CinemaniaHD la pass es:cinemaniahdd.com
Guardado en : Action & Adventure , Drama , Familia , Series

Películas relacionadas

descargar Alex Rider (2021) Segunda Temporada AMZN WEB-DL 1080p Latino 1080p 1080p gratis, Alex Rider (2021) Segunda Temporada AMZN WEB-DL 1080p Latino 1080p mega 1 link, Alex Rider (2021) Segunda Temporada AMZN WEB-DL 1080p Latino 1080p serie completa, descargar Alex Rider (2021) Segunda Temporada AMZN WEB-DL 1080p Latino 1080p gratis en mega.

Alex Rider (2021) Segunda Temporada AMZN WEB-DL 1080p Latino pelicula full hd, Alex Rider (2021) Segunda Temporada AMZN WEB-DL 1080p Latino mega latino, Alex Rider (2021) Segunda Temporada AMZN WEB-DL 1080p Latino 4k latino, Alex Rider (2021) Segunda Temporada AMZN WEB-DL 1080p Latino pelicula completa, Alex Rider (2021) Segunda Temporada AMZN WEB-DL 1080p Latino descargar gratis, descargar Alex Rider (2021) Segunda Temporada AMZN WEB-DL 1080p Latino pelicula latino, Alex Rider (2021) Segunda Temporada AMZN WEB-DL 1080p Latino 1 link mega, Alex Rider (2021) Segunda Temporada AMZN WEB-DL 1080p Latino 1 link google drive, Alex Rider (2021) Segunda Temporada AMZN WEB-DL 1080p Latino hd 1080p latino.
Comentarios 0