×

¿Problemas para descargar con Mozilla, EDGE? Deshabilita la opción "Abrir vinculos en una pestaña nueva" tal como lo muestra ésta imagen.

Alex Rider (2020) Primera Temporada AMZN WEB-DL 1080p Latino

171 vistas

Información de Alex Rider (2020) Primera Temporada AMZN WEB-DL 1080p Latino

Datos de la película

  • Calidad: WEBDL
  • Audio: Español Latino AC3 5.1 WEB-DL - Ingles AC3 5.1 WEB-DL
  • Subtitulos: Español Latino SRT- FORZADOS SRT
  • Resolución: 1920x960
  • Formato: MKV
  • Codec: H.264
  • Encoder: cinemaniahdd
  • Mediainfo: Clic para Mostrar Datos Ver
  • Alex Rider S01\Alex Rider T01E01 AMZN WEB-DL 1080p Latino [CNMNHDD].mkv
    Format                      : Matroska
    Format version              : Version 4
    File size                   : 3.58 GiB
    Duration                    : 45 min 29 s
    Overall bit rate            : 11.3 Mb/s
    Movie name                  : Alex Rider T01E01 - CinemaniaHDD.Net
    Encoded date                : UTC 2021-12-04 01:18:44
    Writing application         : mkvmerge v56.1.0 ('My Friend') 64-bit
    Writing library             : libebml v1.4.2 + libmatroska v1.6.4

    Video
    ID                          : 1
    Format                      : AVC
    Format/Info                 : Advanced Video Codec
    Format profile              : High@L4
    Format settings             : CABAC / 4 Ref Frames
    Format settings, CABAC      : Yes
    Format settings, Reference  : 4 frames
    Codec ID                    : V_MPEG4/ISO/AVC
    Duration                    : 45 min 29 s
    Bit rate mode               : Constant
    Bit rate                    : 9 334 kb/s
    Nominal bit rate            : 10 000 kb/s
    Width                       : 1 920 pixels
    Height                      : 960 pixels
    Display aspect ratio        : 2.000
    Frame rate mode             : Constant
    Frame rate                  : 23.976 (24000/1001) FPS
    Color space                 : YUV
    Chroma subsampling          : 4:2:0
    Bit depth                   : 8 bits
    Scan type                   : Progressive
    Bits/(Pixel*Frame)          : 0.211
    Stream size                 : 2.97 GiB (83%)
    Title                       : CinemaniaHDD
    Default                     : Yes
    Forced                      : No
    Color range                 : Limited
    Color primaries             : BT.709
    Transfer characteristics    : BT.709
    Matrix coefficients         : BT.709

    Audio #1
    ID                          : 2
    Format                      : AC-3
    Format/Info                 : Audio Coding 3
    Commercial name             : Dolby Digital
    Codec ID                    : A_AC3
    Duration                    : 45 min 29 s
    Bit rate mode               : Constant
    Bit rate                    : 640 kb/s
    Channel(s)                  : 6 channels
    Channel layout              : L R C LFE Ls Rs
    Sampling rate               : 48.0 kHz
    Frame rate                  : 31.250 FPS (1536 SPF)
    Compression mode            : Lossy
    Stream size                 : 208 MiB (6%)
    Title                       : Español latino [CinemaniaHDD]
    Language                    : Spanish
    Service kind                : Complete Main
    Default                     : Yes
    Forced                      : No

    Audio #2
    ID                          : 3
    Format                      : E-AC-3
    Format/Info                 : Enhanced AC-3
    Commercial name             : Dolby Digital Plus
    Codec ID                    : A_EAC3
    Duration                    : 45 min 29 s
    Bit rate mode               : Constant
    Bit rate                    : 640 kb/s
    Channel(s)                  : 6 channels
    Channel layout              : L R C LFE Ls Rs
    Sampling rate               : 48.0 kHz
    Frame rate                  : 31.250 FPS (1536 SPF)
    Compression mode            : Lossy
    Stream size                 : 208 MiB (6%)
    Title                       : Español latino / E-AC3 [CinemaniaHDD]
    Language                    : Spanish
    Service kind                : Complete Main
    Default                     : No
    Forced                      : No

    Audio #3
    ID                          : 4
    Format                      : E-AC-3
    Format/Info                 : Enhanced AC-3
    Commercial name             : Dolby Digital Plus
    Codec ID                    : A_EAC3
    Duration                    : 45 min 29 s
    Bit rate mode               : Constant
    Bit rate                    : 640 kb/s
    Channel(s)                  : 6 channels
    Channel layout              : L R C LFE Ls Rs
    Sampling rate               : 48.0 kHz
    Frame rate                  : 31.250 FPS (1536 SPF)
    Compression mode            : Lossy
    Stream size                 : 208 MiB (6%)
    Title                       : Inglés [CinemaniaHDD]
    Language                    : English
    Service kind                : Complete Main
    Default                     : No
    Forced                      : No

    Text #1
    ID                          : 5
    Format                      : UTF-8
    Codec ID                    : S_TEXT/UTF8
    Codec ID/Info               : UTF-8 Plain Text
    Duration                    : 44 min 17 s
    Bit rate                    : 63 b/s
    Count of elements           : 713
    Stream size                 : 20.8 KiB (0%)
    Title                       : Inglés [CinemaniaHDD]
    Language                    : English
    Default                     : No
    Forced                      : No

    Text #2
    ID                          : 6
    Format                      : UTF-8
    Codec ID                    : S_TEXT/UTF8
    Codec ID/Info               : UTF-8 Plain Text
    Duration                    : 43 min 55 s
    Bit rate                    : 53 b/s
    Count of elements           : 555
    Stream size                 : 17.2 KiB (0%)
    Title                       : Español latino [CinemaniaHDD]
    Language                    : Spanish
    Default                     : No
    Forced                      : No

    Text #3
    ID                          : 7
    Format                      : UTF-8
    Codec ID                    : S_TEXT/UTF8
    Codec ID/Info               : UTF-8 Plain Text
    Duration                    : 40 min 42 s
    Bit rate                    : 0 b/s
    Count of elements           : 10
    Stream size                 : 296 Bytes (0%)
    Title                       : Forzados [CinemaniaHDD]
    Language                    : Spanish
    Default                     : Yes
    Forced                      : Yes

    Menu
    00:00:00.000                : Yassen sneaks into a room
    00:03:47.000                : Opening Credits
    00:04:31.000                : Alex is at school
    00:06:10.000                : Alex breaks into school
    00:08:19.000                : Alex is in a car with Ian
    00:09:04.000                : Alex backs to his home
    00:11:28.000                : Ian works at home
    00:14:01.000                : Alex talks with Tom
    00:15:15.000                : Ian sees Martin
    00:16:03.000                : Alex is at party
    00:19:24.000                : Ian goes in an old building
    00:22:51.000                : Alex receives a sad news
    00:26:46.000                : Jones visits Alex
    00:27:40.000                : Blunt investigates Martin
    00:28:31.000                : Tom comes to Alex
    00:32:10.000                : Alex looks for a clue
    00:35:57.000                : Alex meets Blunt
    00:39:54.000                : Alex has no choice
    00:43:21.000                : Blunt waits for Alex
    00:44:18.000                : End Credits

     

  • Peso: 3.58 GiB Aprox ---- 26 GiB in 8 Chapters.

Sinopsis

Alex Rider es un adolescente común que se enlistó para trabajar en nombre del MI6, donde usa habilidades que no sabía que tenía que convertirse en un espía extraordinario

Ficha técnica

Video trailer de la película

Enlaces de descarga

Rip de Bluray

Descargar Alex Rider (2020) Primera Temporada AMZN WEB-DL 1080p Latino




Aportes de DPeliculasHDmega la pass es:dpeliculashdmega.org Aportes de CinemaniaHD la pass es:cinemaniahdd.com
Guardado en : Action & Adventure , Drama , Familia , Series

Películas relacionadas

  • Paradise Highway (2022) HD 1080p Latino

    Paradise Highway (2022) HD 1080p Latino

    2022
    Paradise Highway (2022) HD 1080p Latino

    1h 55m 2022

    Descargar Paradise Highway (2022) HD 1080p Latino. Un camionero se ha visto obligado a pasar de contrabando...

    Director: Anna Gutto

    Género: Crimen

    Actores: Xavier Scott Evans

  • Paradise Highway (2022) PLACEBO Full HD 1080p Latino

    Paradise Highway (2022) PLACEBO Full HD 1080p Latino

    2022
    Paradise Highway (2022) PLACEBO Full HD 1080p Latino

    1h 55m 2022

    Descargar Paradise Highway (2022) PLACEBO Full HD 1080p Latino. Un camionero se ha visto obligado a pasar...

    Director: Anna Gutto

    Género: Crimen

    Actores: Xavier Scott Evans

  • Paradise Highway (2022) REMUX 1080p Latino

    Paradise Highway (2022) REMUX 1080p Latino

    2022
    Paradise Highway (2022) REMUX 1080p Latino

    1h 55m 2022

    Descargar Paradise Highway (2022) REMUX 1080p Latino. Un camionero se ha visto obligado a pasar de contrabando...

    Director: Anna Gutto

    Género: Crimen

    Actores: Xavier Scott Evans

descargar Alex Rider (2020) Primera Temporada AMZN WEB-DL 1080p Latino WEBDL 1080p gratis, Alex Rider (2020) Primera Temporada AMZN WEB-DL 1080p Latino WEBDL mega 1 link, Alex Rider (2020) Primera Temporada AMZN WEB-DL 1080p Latino WEBDL serie completa, descargar Alex Rider (2020) Primera Temporada AMZN WEB-DL 1080p Latino WEBDL gratis en mega.

Alex Rider (2020) Primera Temporada AMZN WEB-DL 1080p Latino pelicula full hd, Alex Rider (2020) Primera Temporada AMZN WEB-DL 1080p Latino mega latino, Alex Rider (2020) Primera Temporada AMZN WEB-DL 1080p Latino 4k latino, Alex Rider (2020) Primera Temporada AMZN WEB-DL 1080p Latino pelicula completa, Alex Rider (2020) Primera Temporada AMZN WEB-DL 1080p Latino descargar gratis, descargar Alex Rider (2020) Primera Temporada AMZN WEB-DL 1080p Latino pelicula latino, Alex Rider (2020) Primera Temporada AMZN WEB-DL 1080p Latino 1 link mega, Alex Rider (2020) Primera Temporada AMZN WEB-DL 1080p Latino 1 link google drive, Alex Rider (2020) Primera Temporada AMZN WEB-DL 1080p Latino hd 1080p latino.
Comentarios 0