×

¿Problemas para descargar con Mozilla, EDGE? Deshabilita la opción "Abrir vinculos en una pestaña nueva" tal como lo muestra ésta imagen.

Alerta Extrema (2023) AMZN WEB-DL 1080p Latino

346 vistas

Información de Alerta Extrema (2023) AMZN WEB-DL 1080p Latino

Datos de la película

  • Calidad: WEBDL
  • Audio: Español Latino AC3 5.1 WEB-DL - Ingles AC3 5.1 WEB-DL
  • Subtitulos: Español Latino SRT- FORZADOS SRT
  • Resolución: 1920x800p
  • Formato: MKV
  • Codec: H.264
  • Encoder: Melkor
  • Mediainfo: Clic para Mostrar Datos Ver
  • Alerta Extrema (2023) AMZN WebDL 1080p Latino.mkv
    Format                      : Matroska
    Format version              : Version 4
    File size                   : 6.28 GiB
    Duration                    : 1 h 47 min
    Overall bit rate            : 8 371 kb/s
    Movie name                  : Plane (2023) CinemaniaHDD.Net
    Encoded date                : UTC 2023-02-26 22:45:57
    Writing application         : mkvmerge v56.1.0 ('My Friend') 64-bit
    Writing library             : libebml v1.4.2 + libmatroska v1.6.4
    Attachments                 : CINEMANIAHD.png
    Site                        : CinemaniaHDD.Net
    Uploader                    : Melkor

    Video
    ID                          : 1
    Format                      : AVC
    Format/Info                 : Advanced Video Codec
    Format profile              : High@L4
    Format settings             : CABAC / 4 Ref Frames
    Format settings, CABAC      : Yes
    Format settings, Reference  : 4 frames
    Codec ID                    : V_MPEG4/ISO/AVC
    Duration                    : 1 h 47 min
    Bit rate mode               : Constant
    Bit rate                    : 6 448 kb/s
    Nominal bit rate            : 10 000 kb/s
    Width                       : 1 920 pixels
    Height                      : 800 pixels
    Display aspect ratio        : 2.40:1
    Frame rate mode             : Constant
    Frame rate                  : 23.976 (24000/1001) FPS
    Color space                 : YUV
    Chroma subsampling          : 4:2:0
    Bit depth                   : 8 bits
    Scan type                   : Progressive
    Bits/(Pixel*Frame)          : 0.175
    Stream size                 : 4.84 GiB (77%)
    Title                       : Web HD1080p [CinemaniaHDD]
    Language                    : English
    Default                     : Yes
    Forced                      : Yes
    Color range                 : Limited
    Color primaries             : BT.709
    Transfer characteristics    : BT.709
    Matrix coefficients         : BT.709

    Audio #1
    ID                          : 2
    Format                      : AC-3
    Format/Info                 : Audio Coding 3
    Commercial name             : Dolby Digital
    Codec ID                    : A_AC3
    Duration                    : 1 h 47 min
    Bit rate mode               : Constant
    Bit rate                    : 640 kb/s
    Channel(s)                  : 6 channels
    Channel layout              : L R C LFE Ls Rs
    Sampling rate               : 48.0 kHz
    Frame rate                  : 31.250 FPS (1536 SPF)
    Compression mode            : Lossy
    Stream size                 : 492 MiB (8%)
    Title                       : Español Latino AC3 [CinemaniaHDD]
    Language                    : Spanish
    Service kind                : Complete Main
    Default                     : Yes
    Forced                      : Yes

    Audio #2
    ID                          : 3
    Format                      : E-AC-3
    Format/Info                 : Enhanced AC-3
    Commercial name             : Dolby Digital Plus
    Codec ID                    : A_EAC3
    Duration                    : 1 h 47 min
    Bit rate mode               : Constant
    Bit rate                    : 640 kb/s
    Channel(s)                  : 6 channels
    Channel layout              : L R C LFE Ls Rs
    Sampling rate               : 48.0 kHz
    Frame rate                  : 31.250 FPS (1536 SPF)
    Compression mode            : Lossy
    Stream size                 : 492 MiB (8%)
    Title                       : Español Latino EAC3 [CinemaniaHDD]
    Language                    : Spanish
    Service kind                : Complete Main
    Default                     : No
    Forced                      : No

    Audio #3
    ID                          : 4
    Format                      : E-AC-3
    Format/Info                 : Enhanced AC-3
    Commercial name             : Dolby Digital Plus
    Codec ID                    : A_EAC3
    Duration                    : 1 h 47 min
    Bit rate mode               : Constant
    Bit rate                    : 640 kb/s
    Channel(s)                  : 6 channels
    Channel layout              : L R C LFE Ls Rs
    Sampling rate               : 48.0 kHz
    Frame rate                  : 31.250 FPS (1536 SPF)
    Compression mode            : Lossy
    Stream size                 : 492 MiB (8%)
    Title                       : Ingles [CinemaniaHDD]
    Language                    : English
    Service kind                : Complete Main
    Default                     : No
    Forced                      : No

    Text #1
    ID                          : 5
    Format                      : UTF-8
    Codec ID                    : S_TEXT/UTF8
    Codec ID/Info               : UTF-8 Plain Text
    Duration                    : 1 h 42 min
    Bit rate                    : 0 b/s
    Count of elements           : 8
    Stream size                 : 262 Bytes (0%)
    Title                       : Forzados-SRT [CinemaniaHDD]
    Language                    : Spanish
    Default                     : Yes
    Forced                      : Yes

    Text #2
    ID                          : 6
    Format                      : UTF-8
    Codec ID                    : S_TEXT/UTF8
    Codec ID/Info               : UTF-8 Plain Text
    Duration                    : 1 h 46 min
    Bit rate                    : 51 b/s
    Count of elements           : 1195
    Stream size                 : 40.3 KiB (0%)
    Title                       : Español-SRT [CinemaniaHDD]
    Language                    : Spanish
    Default                     : No
    Forced                      : No

    Text #3
    ID                          : 7
    Format                      : UTF-8
    Codec ID                    : S_TEXT/UTF8
    Codec ID/Info               : UTF-8 Plain Text
    Duration                    : 1 h 41 min
    Bit rate                    : 67 b/s
    Count of elements           : 1732
    Stream size                 : 50.2 KiB (0%)
    Title                       : Ingles-SRT [CinemaniaHDD]
    Language                    : English
    Default                     : No
    Forced                      : No

  • Peso: 6.28 GiB

Sinopsis

Descargar Alerta Extrema (2023) AMZN WEB-DL 1080p Latino. En la noche de fin de año, el piloto experto Brodie Torrance (Gerard Butler) realiza un arriesgado aterrizaje cuando su avión, repleto de pasajeros, es alcanzado por un rayo. Perdidos en medio de una isla devastada por la guerra, Torrance se dará cuenta que sobrevivir al vuelo sólo ha sido el principio de una trepidante aventura llena de peligros. El piloto deberá usar todo su ingenio para llevar a los pasajeros a sus destinos sanos y salvos.

Ficha técnica

Video trailer de la película

Enlaces de descarga

Rip de Bluray

Descargar Alerta Extrema (2023) AMZN WEB-DL 1080p Latino




Aportes de DPeliculasHDmega la pass es:dpeliculashdmega.org Aportes de CinemaniaHD la pass es:cinemaniahdd.com Aportes recientes:cinemaniahdd.net
Guardado en : Acción , Aventura , Suspenso

Películas relacionadas

  • El bebé de Rosemary (1968) 1080p Latino-CMHDD

    El bebé de Rosemary (1968) 1080p Latino-CMHDD

    1968
    El bebé de Rosemary (1968) 1080p Latino-CMHDD

    2h 18m 1968

    Descargar El bebé de Rosemary (1968) 1080p Latino-CMHDD. Una joven pareja, Rosemary y Guy, se muda a...

    Director: Roman Polanski

    Género: Drama

    Actores: William Castle

  • El Contador (2016) Full HD 1080p Latino-CMHDD

    El Contador (2016) Full HD 1080p Latino-CMHDD

    2016
    El Contador (2016) Full HD 1080p Latino-CMHDD

    2h 8m 2016

    Descargar El Contador (2016) Full HD 1080p Latino-CMHDD. Christian Wolff es un contable y genio matemático,...

    Director: Lori Grabowski

    Género: Crimen

    Actores: Tait Fletcher

  • El Contador (2016) REMUX 1080p Latino-CMHDD

    El Contador (2016) REMUX 1080p Latino-CMHDD

    2016
    El Contador (2016) REMUX 1080p Latino-CMHDD

    2h 8m 2016

    Descargar El Contador (2016) REMUX 1080p Latino-CMHDD. Christian Wolff es un contable y genio matemático,...

    Director: Lori Grabowski

    Género: Crimen

    Actores: Tait Fletcher

descargar Alerta Extrema (2023) AMZN WEB-DL 1080p Latino WEBDL 1080p gratis, Alerta Extrema (2023) AMZN WEB-DL 1080p Latino WEBDL mega 1 link, Alerta Extrema (2023) AMZN WEB-DL 1080p Latino WEBDL pelicula completa, descargar Alerta Extrema (2023) AMZN WEB-DL 1080p Latino WEBDL gratis en mega.

Alerta Extrema (2023) AMZN WEB-DL 1080p Latino pelicula full hd, Alerta Extrema (2023) AMZN WEB-DL 1080p Latino mega latino, Alerta Extrema (2023) AMZN WEB-DL 1080p Latino 4k latino, Alerta Extrema (2023) AMZN WEB-DL 1080p Latino pelicula completa, Alerta Extrema (2023) AMZN WEB-DL 1080p Latino descargar gratis, descargar Alerta Extrema (2023) AMZN WEB-DL 1080p Latino pelicula latino, Alerta Extrema (2023) AMZN WEB-DL 1080p Latino 1 link mega, Alerta Extrema (2023) AMZN WEB-DL 1080p Latino 1 link google drive, Alerta Extrema (2023) AMZN WEB-DL 1080p Latino hd 1080p latino.
Comentarios 0