×

¿Problemas para descargar con Mozilla, EDGE? Deshabilita la opción "Abrir vinculos en una pestaña nueva" tal como lo muestra ésta imagen.

Alert: Missing Persons Unit (2023) Temporada 1 AMZN WEB-DL 1080p Latino

52 vistas

Información de Alert: Missing Persons Unit (2023) Temporada 1 AMZN WEB-DL 1080p Latino

Datos de la película

  • Calidad: 1080p
  • Audio: Español Latino AC3 2.0 WEB-DL - Ingles AC3 5.1 WEB-DL
  • Subtitulos: Español Latino SRT- FORZADOS SRT
  • Resolución: 1920x1080
  • Formato: MKV
  • Codec: H.264
  • Encoder: cinemaniahdd
  • Mediainfo: Clic para Mostrar Datos Ver
  • Alert. Missing Persons Unit T01E01 AMZN WEB-DL 1080p Latino [CNMNHDD].mkv
    Format                      : Matroska
    Format version              : Version 4
    File size                   : 3.33 GiB
    Duration                    : 44 min 35 s
    Overall bit rate            : 10.7 Mb/s
    Movie name                  : Alert. Missing Persons Unit S01E01 - Chloe [1080p] - CinemaniaHDD.Net
    Encoded date                : UTC 2024-03-28 01:47:47
    Writing application         : mkvmerge v56.1.0 ('My Friend') 64-bit
    Writing library             : libebml v1.4.2 + libmatroska v1.6.4

    Video
    ID                          : 1
    Format                      : AVC
    Format/Info                 : Advanced Video Codec
    Format profile              : High@L4
    Format settings             : CABAC / 4 Ref Frames
    Format settings, CABAC      : Yes
    Format settings, Reference  : 4 frames
    Codec ID                    : V_MPEG4/ISO/AVC
    Duration                    : 44 min 35 s
    Bit rate mode               : Constant
    Bit rate                    : 10 000 kb/s
    Width                       : 1 920 pixels
    Height                      : 960 pixels
    Display aspect ratio        : 2.000
    Frame rate mode             : Constant
    Frame rate                  : 23.976 (24000/1001) FPS
    Color space                 : YUV
    Chroma subsampling          : 4:2:0
    Bit depth                   : 8 bits
    Scan type                   : Progressive
    Bits/(Pixel*Frame)          : 0.226
    Stream size                 : 3.01 GiB (90%)
    Title                       : CinemaniaHDD
    Default                     : Yes
    Forced                      : No
    Color range                 : Limited
    Color primaries             : BT.709
    Transfer characteristics    : BT.709
    Matrix coefficients         : BT.709

    Audio #1
    ID                          : 2
    Format                      : AC-3
    Format/Info                 : Audio Coding 3
    Commercial name             : Dolby Digital
    Codec ID                    : A_AC3
    Duration                    : 44 min 35 s
    Bit rate mode               : Constant
    Bit rate                    : 384 kb/s
    Channel(s)                  : 2 channels
    Channel layout              : L R
    Sampling rate               : 48.0 kHz
    Frame rate                  : 31.250 FPS (1536 SPF)
    Compression mode            : Lossy
    Stream size                 : 122 MiB (4%)
    Title                       : Español Latino [CinemaniaHDD]
    Language                    : Spanish
    Service kind                : Complete Main
    Default                     : Yes
    Forced                      : No

    Audio #2
    ID                          : 3
    Format                      : E-AC-3
    Format/Info                 : Enhanced AC-3
    Commercial name             : Dolby Digital Plus
    Codec ID                    : A_EAC3
    Duration                    : 44 min 35 s
    Bit rate mode               : Constant
    Bit rate                    : 640 kb/s
    Channel(s)                  : 6 channels
    Channel layout              : L R C LFE Ls Rs
    Sampling rate               : 48.0 kHz
    Frame rate                  : 31.250 FPS (1536 SPF)
    Compression mode            : Lossy
    Stream size                 : 204 MiB (6%)
    Title                       : Inglés [CinemaniaHDD]
    Language                    : English
    Service kind                : Complete Main
    Default                     : No
    Forced                      : No

    Text #1
    ID                          : 4
    Format                      : UTF-8
    Codec ID                    : S_TEXT/UTF8
    Codec ID/Info               : UTF-8 Plain Text
    Duration                    : 34 min 41 s
    Bit rate                    : 0 b/s
    Count of elements           : 8
    Stream size                 : 203 Bytes (0%)
    Title                       : Forzados [CinemaniaHDD]
    Language                    : Spanish
    Default                     : Yes
    Forced                      : Yes

    Text #2
    ID                          : 5
    Format                      : UTF-8
    Codec ID                    : S_TEXT/UTF8
    Codec ID/Info               : UTF-8 Plain Text
    Duration                    : 43 min 56 s
    Bit rate                    : 91 b/s
    Count of elements           : 850
    Stream size                 : 29.5 KiB (0%)
    Title                       : Español Latino [CinemaniaHDD]
    Language                    : Spanish
    Default                     : No
    Forced                      : No

    Text #3
    ID                          : 6
    Format                      : UTF-8
    Codec ID                    : S_TEXT/UTF8
    Codec ID/Info               : UTF-8 Plain Text
    Duration                    : 43 min 48 s
    Bit rate                    : 89 b/s
    Count of elements           : 879
    Stream size                 : 28.6 KiB (0%)
    Title                       : Inglés [CinemaniaHDD]
    Language                    : English
    Default                     : No
    Forced                      : No

     

  • Peso: 2.56 GiB C/U --- 4 CAPÍTULOS DISPONIBLES

Sinopsis

Cuando el hijo de la oficial de policía Nikki Batista desaparece, ella se une a la Unidad de Personas Desaparecidas (MPU) del Departamento de Policía de Filadelfia para ayudar a otras personas a encontrar a sus seres queridos, incluso mientras ella busca a los suyos. Seis años después, su mundo da un vuelco cuando su exmarido, Jason Grant, un exoficial de policía, aparece con una fotografía que prueba la vida de su hijo desaparecido. ¿O es eso?

 

4 CAPÍTULOS DISPONIBLES

Ficha técnica

Video trailer de la película

Enlaces de descarga

Rip de Bluray

Descargar Alert: Missing Persons Unit (2023) Temporada 1 AMZN WEB-DL 1080p Latino




Aportes de DPeliculasHDmega la pass es:dpeliculashdmega.org Aportes de CinemaniaHD la pass es:cinemaniahdd.com Aportes recientes:cinemaniahdd.net
Guardado en : Drama , Series

Películas relacionadas

descargar Alert: Missing Persons Unit (2023) Temporada 1 AMZN WEB-DL 1080p Latino 1080p 1080p gratis, Alert: Missing Persons Unit (2023) Temporada 1 AMZN WEB-DL 1080p Latino 1080p mega 1 link, Alert: Missing Persons Unit (2023) Temporada 1 AMZN WEB-DL 1080p Latino 1080p serie completa, descargar Alert: Missing Persons Unit (2023) Temporada 1 AMZN WEB-DL 1080p Latino 1080p gratis en mega.

Alert: Missing Persons Unit (2023) Temporada 1 AMZN WEB-DL 1080p Latino pelicula full hd, Alert: Missing Persons Unit (2023) Temporada 1 AMZN WEB-DL 1080p Latino mega latino, Alert: Missing Persons Unit (2023) Temporada 1 AMZN WEB-DL 1080p Latino 4k latino, Alert: Missing Persons Unit (2023) Temporada 1 AMZN WEB-DL 1080p Latino pelicula completa, Alert: Missing Persons Unit (2023) Temporada 1 AMZN WEB-DL 1080p Latino descargar gratis, descargar Alert: Missing Persons Unit (2023) Temporada 1 AMZN WEB-DL 1080p Latino pelicula latino, Alert: Missing Persons Unit (2023) Temporada 1 AMZN WEB-DL 1080p Latino 1 link mega, Alert: Missing Persons Unit (2023) Temporada 1 AMZN WEB-DL 1080p Latino 1 link google drive, Alert: Missing Persons Unit (2023) Temporada 1 AMZN WEB-DL 1080p Latino hd 1080p latino.
Comentarios 0