×

¿Problemas para descargar con Mozilla, EDGE? Deshabilita la opción "Abrir vinculos en una pestaña nueva" tal como lo muestra ésta imagen.

Aléjate del ático (2020) REMUX 1080p Latino

110 vistas

Información de Aléjate del ático (2020) REMUX 1080p Latino

Datos de la película

  • Calidad: Full 1080p
  • Audio: Español Latino AC3 2.0 WEB-DL - Ingles DTS 5.1 BLURAY
  • Subtitulos: Español Latino SRT- FORZADOS SRT
  • Resolución: 1920x1080p
  • Formato: MKV
  • Codec: H.264
  • Encoder: Melkor
  • Mediainfo: Clic para Mostrar Datos Ver
  • Alejate Del Atico (2020) REMUX 1080p Latino.mkv
    Format                      : Matroska
    Format version              : Version 4
    File size                   : 16.9 GiB
    Duration                    : 1 h 20 min
    Overall bit rate mode       : Variable
    Overall bit rate            : 30.1 Mb/s
    Movie name                  : Stay Out of the Fucking Attic (2020) CinemaniaHDD.Net
    Encoded date                : UTC 2021-10-08 07:58:00
    Writing application         : mkvmerge v56.1.0 ('My Friend') 64-bit
    Writing library             : libebml v1.4.2 + libmatroska v1.6.4
    Attachments                 : CINEMANIAHD.png

    Video
    ID                          : 1
    Format                      : AVC
    Format/Info                 : Advanced Video Codec
    Format profile              : High@L4.1
    Format settings             : CABAC / 4 Ref Frames
    Format settings, CABAC      : Yes
    Format settings, Reference  : 4 frames
    Codec ID                    : V_MPEG4/ISO/AVC
    Duration                    : 1 h 20 min
    Bit rate mode               : Variable
    Bit rate                    : 28.0 Mb/s
    Maximum bit rate            : 38.0 Mb/s
    Width                       : 1 920 pixels
    Height                      : 1 080 pixels
    Display aspect ratio        : 16:9
    Frame rate mode             : Constant
    Frame rate                  : 23.976 (24000/1001) FPS
    Color space                 : YUV
    Chroma subsampling          : 4:2:0
    Bit depth                   : 8 bits
    Scan type                   : Progressive
    Bits/(Pixel*Frame)          : 0.563
    Stream size                 : 15.8 GiB (93%)
    Title                       : REMUX HD1080p [CinemaniaHDD]
    Language                    : English
    Default                     : Yes
    Forced                      : Yes

    Audio #1
    ID                          : 2
    Format                      : AC-3
    Format/Info                 : Audio Coding 3
    Commercial name             : Dolby Digital
    Codec ID                    : A_AC3
    Duration                    : 1 h 20 min
    Bit rate mode               : Constant
    Bit rate                    : 256 kb/s
    Channel(s)                  : 2 channels
    Channel layout              : L R
    Sampling rate               : 48.0 kHz
    Frame rate                  : 31.250 FPS (1536 SPF)
    Compression mode            : Lossy
    Stream size                 : 148 MiB (1%)
    Title                       : Español Latino [CinemaniaHDD]
    Language                    : Spanish
    Service kind                : Complete Main
    Default                     : Yes
    Forced                      : Yes

    Audio #2
    ID                          : 3
    Format                      : DTS XLL
    Format/Info                 : Digital Theater Systems
    Commercial name             : DTS-HD Master Audio
    Codec ID                    : A_DTS
    Duration                    : 1 h 20 min
    Bit rate mode               : Variable
    Bit rate                    : 1 852 kb/s
    Channel(s)                  : 6 channels
    Channel layout              : C L R Ls Rs LFE
    Sampling rate               : 48.0 kHz
    Frame rate                  : 93.750 FPS (512 SPF)
    Bit depth                   : 16 bits
    Compression mode            : Lossless
    Stream size                 : 1.04 GiB (6%)
    Title                       : Ingles [CinemaniaHDD]
    Language                    : English
    Default                     : No
    Forced                      : No

    Text #1
    ID                          : 4
    Format                      : UTF-8
    Codec ID                    : S_TEXT/UTF8
    Codec ID/Info               : UTF-8 Plain Text
    Duration                    : 1 h 1 min
    Bit rate                    : 0 b/s
    Count of elements           : 8
    Stream size                 : 193 Bytes (0%)
    Title                       : Forzados-SRT [CinemaniaHDD]
    Language                    : Spanish
    Default                     : Yes
    Forced                      : Yes

    Text #2
    ID                          : 5
    Format                      : UTF-8
    Codec ID                    : S_TEXT/UTF8
    Codec ID/Info               : UTF-8 Plain Text
    Duration                    : 1 h 19 min
    Bit rate                    : 38 b/s
    Count of elements           : 873
    Stream size                 : 22.3 KiB (0%)
    Title                       : Español-SRT [CinemaniaHDD]
    Language                    : Spanish
    Default                     : No
    Forced                      : No

    Text #3
    ID                          : 6
    Format                      : UTF-8
    Codec ID                    : S_TEXT/UTF8
    Codec ID/Info               : UTF-8 Plain Text
    Duration                    : 1 h 18 min
    Bit rate                    : 40 b/s
    Count of elements           : 867
    Stream size                 : 23.1 KiB (0%)
    Title                       : Ingles [CinemaniaHDD]
    Language                    : English
    Default                     : No
    Forced                      : No

    Menu
    00:00:00.000                : Chapter 01
    00:08:19.374                : Chapter 02
    00:18:03.624                : Chapter 03
    00:26:48.023                : Chapter 04
    00:37:03.221                : Chapter 05
    00:44:46.851                : Chapter 06
    00:53:48.267                : Chapter 07
    01:01:55.837                : Chapter 08
    01:11:25.573                : Chapter 09

  • Peso: 16.9 GiB

Sinopsis

Descargar Aléjate del ático (2020) REMUX 1080p Latino. Un extraño cliente convence a los trabajadores de una empresa de mudanzas, exconvictos, a pasar la noche en su casa. A medida que avanza la noche y se despejan las habitaciones, poco a poco descubren los horrores que existen dentro de su antigua mansión victoriana, que incluyen trampas explosivas, experimentación humana, monstruos nazis y más.

Ficha técnica

  • Titulo original: Stay Out of the Attic
  • Fecha de lanzamiento: 11-03-2021 (United States of America)
  • Director: Jerren Lauder
  • Género: Remux, Terror

Video trailer de la película

Enlaces de descarga

Rip de Bluray

Descargar Aléjate del ático (2020) REMUX 1080p Latino




Aportes de DPeliculasHDmega la pass es:dpeliculashdmega.org Aportes de CinemaniaHD la pass es:cinemaniahdd.com
Guardado en : Remux , Terror

Películas relacionadas

  • Wire Room (2022) REMUX 1080p Latino

    Wire Room (2022) REMUX 1080p Latino

    2022
    Wire Room (2022) REMUX 1080p Latino

    1h 37m 2022

    Descargar Wire Room (2022) REMUX 1080p Latino. Mientras está de servicio en la sala de cables, un agente...

    Director: Matt Eskandari

    Género: Acción

    Actores: Texas Battle

  • Alarido (2022) HD 1080p Latino

    Alarido (2022) HD 1080p Latino

    2022
    Alarido (2022) HD 1080p Latino

    1h 29m 2022

    Descargar Alarido (2022) HD 1080p Latino. Una joven madre soltera es cautiva junto con sus dos hijos...

    Director: D.J. Caruso

    Género: HD 1080p

    Actores: Vincent Gallo

  • Alarido (2022) PLACEBO Full HD 1080p Latino

    Alarido (2022) PLACEBO Full HD 1080p Latino

    2022
    Alarido (2022) PLACEBO Full HD 1080p Latino

    1h 29m 2022

    Descargar Alarido (2022) PLACEBO Full HD 1080p Latino. Una joven madre soltera es cautiva junto con sus...

    Director: D.J. Caruso

    Género: FULL 1080p Plateadas

    Actores: Vincent Gallo

  • Alarido (2022) REMUX 1080p Latino

    Alarido (2022) REMUX 1080p Latino

    2022
    Alarido (2022) REMUX 1080p Latino

    1h 29m 2022

    Descargar Alarido (2022) REMUX 1080p Latino. Una joven madre soltera es cautiva junto con sus dos hijos...

    Director: D.J. Caruso

    Género: Remux

    Actores: Vincent Gallo

  • Borrego: Sal Del Camino (2022) REMUX 1080p Latino

    Borrego: Sal Del Camino (2022) REMUX 1080p Latino

    2022
    Borrego: Sal Del Camino (2022) REMUX 1080p Latino

    1h 42m 2022

    Descargar Borrego: Sal Del Camino (2022) REMUX 1080p Latino. Una joven botánica se traslada a un pequeño...

    Director: Jesse Harris

    Género: Crimen

    Actores: Olivia Trujillo

descargar Aléjate del ático (2020) REMUX 1080p Latino Full 1080p 1080p gratis, Aléjate del ático (2020) REMUX 1080p Latino Full 1080p mega 1 link, Aléjate del ático (2020) REMUX 1080p Latino Full 1080p pelicula completa, descargar Aléjate del ático (2020) REMUX 1080p Latino Full 1080p gratis en mega.

Aléjate del ático (2020) REMUX 1080p Latino pelicula full hd, Aléjate del ático (2020) REMUX 1080p Latino mega latino, Aléjate del ático (2020) REMUX 1080p Latino 4k latino, Aléjate del ático (2020) REMUX 1080p Latino pelicula completa, Aléjate del ático (2020) REMUX 1080p Latino descargar gratis, descargar Aléjate del ático (2020) REMUX 1080p Latino pelicula latino, Aléjate del ático (2020) REMUX 1080p Latino 1 link mega, Aléjate del ático (2020) REMUX 1080p Latino 1 link google drive, Aléjate del ático (2020) REMUX 1080p Latino hd 1080p latino.
Comentarios 0