×

¿Problemas para descargar con Mozilla, EDGE? Deshabilita la opción "Abrir vinculos en una pestaña nueva" tal como lo muestra ésta imagen.

Alcanzando un sueño (2018) 1080p Latino

958 vistas

Información de Alcanzando un sueño (2018) 1080p Latino

Datos de la película

  • Calidad: 1080p
  • Audio: Español Latino AC3 5.1 DVD - Ingles AC3 5.1 BLURAY
  • Subtitulos: Español Latino SRT- FORZADOS SRT
  • Resolución: 1920x804
  • Formato: MKV
  • Codec: H.264
  • Encoder: cinemaniahdd
  • Mediainfo: Clic para Mostrar Datos Ver
  • Alcanzando un sueño (2018) 1080p Latino.mkv
    Format                      : Matroska
    Format version              : Version 4
    File size                   : 2.81 GiB
    Duration                    : 1 h 33 min
    Overall bit rate            : 4 285 kb/s
    Movie name                  : Alcanzando un sueño (2018) 1080p Latino
    Encoded date                : UTC 2019-09-18 19:03:06
    Writing application         : mkvmerge v35.0.0 ('All The Love In The World') 64-bit
    Writing library             : libebml v1.3.9 + libmatroska v1.5.2

    Video
    ID                          : 1
    Format                      : AVC
    Format/Info                 : Advanced Video Codec
    Format profile              : Main@L4
    Format settings             : CABAC / 4 Ref Frames
    Format settings, CABAC      : Yes
    Format settings, ReFrames   : 4 frames
    Codec ID                    : V_MPEG4/ISO/AVC
    Duration                    : 1 h 33 min
    Bit rate                    : 3 500 kb/s
    Width                       : 1 920 pixels
    Height                      : 804 pixels
    Display aspect ratio        : 2.40:1
    Frame rate mode             : Constant
    Frame rate                  : 23.976 (24000/1001) FPS
    Color space                 : YUV
    Chroma subsampling          : 4:2:0
    Bit depth                   : 8 bits
    Scan type                   : Progressive
    Bits/(Pixel*Frame)          : 0.095
    Stream size                 : 2.26 GiB (81%)
    Title                       : CinemaniaHDD
    Writing library             : x264 core 157 r2935 545de2f
    Encoding settings           : cabac=1 / ref=3 / deblock=1:0:0 / analyse=0x1:0x111 / me=hex / subme=7 / psy=1 / psy_rd=1.00:0.00 / mixed_ref=1 / me_range=16 / chroma_me=1 / trellis=1 / 8x8dct=0 / cqm=0 / deadzone=21,11 / fast_pskip=1 / chroma_qp_offset=-2 / threads=25 / lookahead_threads=4 / sliced_threads=0 / nr=0 / decimate=1 / interlaced=0 / bluray_compat=0 / constrained_intra=0 / bframes=3 / b_pyramid=2 / b_adapt=1 / b_bias=0 / direct=1 / weightb=1 / open_gop=0 / weightp=2 / keyint=240 / keyint_min=24 / scenecut=40 / intra_refresh=0 / rc_lookahead=40 / rc=abr / mbtree=1 / bitrate=3500 / ratetol=1.0 / qcomp=0.60 / qpmin=0 / qpmax=69 / qpstep=4 / vbv_maxrate=20000 / vbv_bufsize=25000 / nal_hrd=none / filler=0 / ip_ratio=1.40 / aq=1:1.00
    Default                     : Yes
    Forced                      : No
    Color range                 : Limited
    Color primaries             : BT.709
    Transfer characteristics    : BT.709
    Matrix coefficients         : BT.709

    Audio #1
    ID                          : 2
    Format                      : AC-3
    Format/Info                 : Audio Coding 3
    Commercial name             : Dolby Digital
    Codec ID                    : A_AC3
    Duration                    : 1 h 33 min
    Bit rate mode               : Constant
    Bit rate                    : 384 kb/s
    Channel(s)                  : 6 channels
    Channel layout              : L R C LFE Ls Rs
    Sampling rate               : 48.0 kHz
    Frame rate                  : 31.250 FPS (1536 SPF)
    Bit depth                   : 16 bits
    Compression mode            : Lossy
    Delay relative to video     : -5 ms
    Stream size                 : 258 MiB (9%)
    Title                       : Español latino [CinemaniaHDD]
    Language                    : Spanish
    Service kind                : Complete Main
    Default                     : Yes
    Forced                      : Yes

    Audio #2
    ID                          : 3
    Format                      : AC-3
    Format/Info                 : Audio Coding 3
    Commercial name             : Dolby Digital
    Codec ID                    : A_AC3
    Duration                    : 1 h 33 min
    Bit rate mode               : Constant
    Bit rate                    : 448 kb/s
    Channel(s)                  : 6 channels
    Channel layout              : L R C LFE Ls Rs
    Sampling rate               : 48.0 kHz
    Frame rate                  : 31.250 FPS (1536 SPF)
    Bit depth                   : 16 bits
    Compression mode            : Lossy
    Delay relative to video     : -5 ms
    Stream size                 : 301 MiB (10%)
    Title                       : Inglés [CinemaniaHDD]
    Language                    : English
    Service kind                : Complete Main
    Default                     : No
    Forced                      : No

    Text #1
    ID                          : 4
    Format                      : UTF-8
    Codec ID                    : S_TEXT/UTF8
    Codec ID/Info               : UTF-8 Plain Text
    Duration                    : 1 h 26 min
    Bit rate                    : 10 b/s
    Count of elements           : 210
    Stream size                 : 6.82 KiB (0%)
    Title                       : Forzados [CinemaniaHDD]
    Language                    : Spanish
    Default                     : Yes
    Forced                      : Yes

    Text #2
    ID                          : 5
    Format                      : UTF-8
    Codec ID                    : S_TEXT/UTF8
    Codec ID/Info               : UTF-8 Plain Text
    Duration                    : 1 h 32 min
    Bit rate                    : 43 b/s
    Count of elements           : 1101
    Stream size                 : 29.2 KiB (0%)
    Title                       : Español latino [CinemaniaHDD]
    Language                    : Spanish
    Default                     : No
    Forced                      : No

    Menu
    00:00:00.000                : en:00:00:00.000
    00:04:25.515                : en:00:04:25.515
    00:08:19.416                : en:00:08:19.416
    00:14:50.765                : en:00:14:50.765
    00:19:28.667                : en:00:19:28.667
    00:24:12.117                : en:00:24:12.117
    00:27:05.749                : en:00:27:05.749
    00:30:27.617                : en:00:30:27.617
    00:34:23.061                : en:00:34:23.061
    00:39:28.157                : en:00:39:28.157
    00:44:32.169                : en:00:44:32.169
    00:49:56.702                : en:00:49:56.702
    00:54:09.121                : en:00:54:09.121
    01:00:51.189                : en:01:00:51.189
    01:06:30.737                : en:01:06:30.737
    01:09:43.429                : en:01:09:43.429
    01:13:07.383                : en:01:13:07.383
    01:18:45.054                : en:01:18:45.054
    01:22:50.716                : en:01:22:50.716
    01:28:40.232                : en:01:28:40.232

     

  • Peso: 2.81 GiB

Sinopsis

Violet (Fanning) es una introvertida adolescente que vive en la Isla de Wight (Inglaterra) y que sueña con convertise en una estrella del Pop para poder así alejarse de tu triste panorama familiar. Con la ayuda de un inesperado mentor, Violet se inscribe en un concurso de canto que pondrá a prueba su integridad, talento y ambición.

Ficha técnica

  • Titulo original: Teen Spirit
  • Fecha de lanzamiento: 12-04-2019 (United States of America)
  • Director: Max Minghella
  • Género: Drama, Música

Video trailer de la película

Enlaces de descarga

Rip de Bluray

Descargar Alcanzando un sueño (2018) 1080p Latino




Aportes de DPeliculasHDmega la pass es:dpeliculashdmega.org Aportes de CinemaniaHD la pass es:cinemaniahdd.com
Guardado en : Drama , Música

Películas relacionadas

  • Togo (2022) NF WEB-DL 1080p Latino

    Togo (2022) NF WEB-DL 1080p Latino

    2022
    Togo (2022) NF WEB-DL 1080p Latino

    1h 35m 2022

    Descargar Togo (2022) NF WEB-DL 1080p Latino. Los narcos de poca monta están copando las calles de Montevideo...

    Director: Adrián Caetano

    Género: Crimen

    Actores: Tito Prieto

  • El Ultimo Juego (2021) WEB-DL 1080p Latino

    El Ultimo Juego (2021) WEB-DL 1080p Latino

    2021
    El Ultimo Juego (2021) WEB-DL 1080p Latino

    1h 21m 2021

    Descargar El Ultimo Juego (2021) WEB-DL 1080p Latino. 6 extraños se despiertan dentro de una habitación...

    Director: John David Moffat IV

    Género: Drama

    Actores: Yasmin Irvine

descargar Alcanzando un sueño (2018) 1080p Latino 1080p 1080p gratis, Alcanzando un sueño (2018) 1080p Latino 1080p mega 1 link, Alcanzando un sueño (2018) 1080p Latino 1080p pelicula completa, descargar Alcanzando un sueño (2018) 1080p Latino 1080p gratis en mega.

Alcanzando un sueño (2018) 1080p Latino pelicula full hd, Alcanzando un sueño (2018) 1080p Latino mega latino, Alcanzando un sueño (2018) 1080p Latino 4k latino, Alcanzando un sueño (2018) 1080p Latino pelicula completa, Alcanzando un sueño (2018) 1080p Latino descargar gratis, descargar Alcanzando un sueño (2018) 1080p Latino pelicula latino, Alcanzando un sueño (2018) 1080p Latino 1 link mega, Alcanzando un sueño (2018) 1080p Latino 1 link google drive, Alcanzando un sueño (2018) 1080p Latino hd 1080p latino.
Comentarios 0