×

¿Problemas para descargar con Mozilla, EDGE? Deshabilita la opción "Abrir vinculos en una pestaña nueva" tal como lo muestra ésta imagen.

Alarido (2022) REMUX 1080p Latino

54 vistas

Información de Alarido (2022) REMUX 1080p Latino

Datos de la película

  • Calidad: Full 1080p
  • Audio: Español Latino AC3 5.1 WEB-DL - Ingles DTS 5.1 BLURAY
  • Subtitulos: Español PGS - Ingles PGS
  • Resolución: 1920x1080p
  • Formato: MKV
  • Codec: H.264
  • Encoder: Melkor
  • Mediainfo: Clic para Mostrar Datos Ver
  • Alarido (2022) REMUX 1080p Latino.mkv
    Format                      : Matroska
    Format version              : Version 4
    File size                   : 17.0 GiB
    Duration                    : 1 h 29 min
    Overall bit rate mode       : Variable
    Overall bit rate            : 27.3 Mb/s
    Movie name                  : Shut In (2022) CinemaniaHDD.Net
    Encoded date                : UTC 2022-09-29 06:22:52
    Writing application         : mkvmerge v56.1.0 ('My Friend') 64-bit
    Writing library             : libebml v1.4.2 + libmatroska v1.6.4
    Attachments                 : CINEMANIAHD.png

    Video
    ID                          : 1
    ID in the original source m : 4113 (0x1011)
    Format                      : AVC
    Format/Info                 : Advanced Video Codec
    Format profile              : High@L4.1
    Format settings             : CABAC / 4 Ref Frames
    Format settings, CABAC      : Yes
    Format settings, Reference  : 4 frames
    Codec ID                    : V_MPEG4/ISO/AVC
    Duration                    : 1 h 29 min
    Bit rate mode               : Variable
    Bit rate                    : 25.1 Mb/s
    Maximum bit rate            : 30.0 Mb/s
    Width                       : 1 920 pixels
    Height                      : 1 080 pixels
    Display aspect ratio        : 16:9
    Frame rate mode             : Constant
    Frame rate                  : 23.976 (24000/1001) FPS
    Color space                 : YUV
    Chroma subsampling          : 4:2:0
    Bit depth                   : 8 bits
    Scan type                   : Progressive
    Bits/(Pixel*Frame)          : 0.504
    Stream size                 : 15.6 GiB (92%)
    Title                       : REMUX HD1080p [CinemaniaHDD]
    Default                     : Yes
    Forced                      : Yes
    Color range                 : Limited
    Color primaries             : BT.709
    Transfer characteristics    : BT.709
    Matrix coefficients         : BT.709
    Original source medium      : Blu-ray

    Audio #1
    ID                          : 2
    Format                      : AC-3
    Format/Info                 : Audio Coding 3
    Commercial name             : Dolby Digital
    Codec ID                    : A_AC3
    Duration                    : 1 h 29 min
    Bit rate mode               : Constant
    Bit rate                    : 448 kb/s
    Channel(s)                  : 6 channels
    Channel layout              : L R C LFE Ls Rs
    Sampling rate               : 48.0 kHz
    Frame rate                  : 31.250 FPS (1536 SPF)
    Compression mode            : Lossy
    Stream size                 : 285 MiB (2%)
    Title                       : Español Latino [CinemaniaHDD]
    Language                    : Spanish
    Service kind                : Complete Main
    Default                     : Yes
    Forced                      : Yes

    Audio #2
    ID                          : 3
    ID in the original source m : 4354 (0x1102)
    Format                      : DTS XLL
    Format/Info                 : Digital Theater Systems
    Commercial name             : DTS-HD Master Audio
    Codec ID                    : A_DTS
    Duration                    : 1 h 29 min
    Bit rate mode               : Variable
    Bit rate                    : 1 738 kb/s
    Channel(s)                  : 6 channels
    Channel layout              : C L R Ls Rs LFE
    Sampling rate               : 48.0 kHz
    Frame rate                  : 93.750 FPS (512 SPF)
    Bit depth                   : 16 bits
    Compression mode            : Lossless
    Stream size                 : 1.08 GiB (6%)
    Title                       : Ingles [CinemaniaHDD]
    Language                    : English
    Default                     : No
    Forced                      : No
    Original source medium      : Blu-ray

    Text #1
    ID                          : 4
    ID in the original source m : 4609 (0x1201)
    Format                      : PGS
    Muxing mode                 : zlib
    Codec ID                    : S_HDMV/PGS
    Codec ID/Info               : Picture based subtitle format used on BDs/HD-DVDs
    Duration                    : 1 h 23 min
    Bit rate                    : 1 114 b/s
    Count of elements           : 48
    Stream size                 : 678 KiB (0%)
    Title                       : Forzados-PGS [CinemaniaHDD]
    Language                    : Spanish
    Default                     : No
    Forced                      : No
    Original source medium      : Blu-ray

    Text #2
    ID                          : 5
    ID in the original source m : 4608 (0x1200)
    Format                      : PGS
    Muxing mode                 : zlib
    Codec ID                    : S_HDMV/PGS
    Codec ID/Info               : Picture based subtitle format used on BDs/HD-DVDs
    Duration                    : 1 h 23 min
    Bit rate                    : 32.5 kb/s
    Count of elements           : 1874
    Stream size                 : 19.3 MiB (0%)
    Title                       : Español-PGS [CinemaniaHDD]
    Language                    : Spanish
    Default                     : No
    Forced                      : No
    Original source medium      : Blu-ray

    Text #3
    ID                          : 6
    Format                      : UTF-8
    Codec ID                    : S_TEXT/UTF8
    Codec ID/Info               : UTF-8 Plain Text
    Duration                    : 1 h 22 min
    Bit rate                    : 39 b/s
    Count of elements           : 1001
    Stream size                 : 24.1 KiB (0%)
    Title                       : Ingles [CinemaniaHDD]
    Language                    : English
    Default                     : No
    Forced                      : No

    Text #4
    ID                          : 7
    Format                      : UTF-8
    Codec ID                    : S_TEXT/UTF8
    Codec ID/Info               : UTF-8 Plain Text
    Duration                    : 43 min 38 s
    Bit rate                    : 0 b/s
    Count of elements           : 5
    Stream size                 : 76.0 Bytes (0%)
    Title                       : Forzados-SRT [CinemaniaHDD]
    Language                    : Spanish
    Default                     : Yes
    Forced                      : Yes

    Text #5
    ID                          : 8
    Format                      : UTF-8
    Codec ID                    : S_TEXT/UTF8
    Codec ID/Info               : UTF-8 Plain Text
    Duration                    : 1 h 23 min
    Bit rate                    : 44 b/s
    Count of elements           : 936
    Stream size                 : 27.4 KiB (0%)
    Title                       : Español-SRT [CinemaniaHDD]
    Language                    : Spanish
    Default                     : No
    Forced                      : No

    Menu
    00:00:00.000                : Chapter 01
    00:08:00.250                : Chapter 02
    00:14:47.500                : Chapter 03
    00:26:18.875                : Chapter 04
    00:32:30.625                : Chapter 05
    00:39:22.500                : Chapter 06
    00:50:09.875                : Chapter 07
    00:58:34.750                : Chapter 08
    01:05:04.500                : Chapter 09
    01:12:04.250                : Chapter 10
    01:24:27.500                : Chapter 11

  • Peso: 17.0 GiB

Sinopsis

Descargar Alarido (2022) REMUX 1080p Latino. Una joven madre soltera es cautiva junto con sus dos hijos por un ex violento y debe planear su escape antes de que sea demasiado tarde.

Ficha técnica

Video trailer de la película

Enlaces de descarga

Rip de Bluray

Descargar Alarido (2022) REMUX 1080p Latino




Aportes de DPeliculasHDmega la pass es:dpeliculashdmega.org Aportes de CinemaniaHD la pass es:cinemaniahdd.com
Guardado en : Remux , Suspenso , Terror

Películas relacionadas

  • The Independent (2022) PCOK WEB-DL 1080p Latino

    The Independent (2022) PCOK WEB-DL 1080p Latino

    2022
    The Independent (2022) PCOK WEB-DL 1080p Latino

    1h 48m 2022

    Una joven periodista descubre una conspiración que involucra a un candidato presidencial de Estados...

    Director: Amy Rice

    Género: Suspenso

    Actores: Zane Pais

  • Super… ¿quién? (2021) REMUX 1080p Latino

    Super… ¿quién? (2021) REMUX 1080p Latino

    2022
    Super… ¿quién? (2021) REMUX 1080p Latino

    1h 22m 2022

    Descargar Super... ¿quién? (2021) REMUX 1080p Latino. Cedric (Philippe Lacheau) intenta ganarse la...

    Director: Philippe Lacheau

    Género: Acción

    Actores: Yves Yan

  • Observada (2022) HD 1080p Latino

    Observada (2022) HD 1080p Latino

    2022
    Observada (2022) HD 1080p Latino

    1h 35m 2022

    Descargar Observada (2022) HD 1080p Latino. Una joven se muda a un nuevo apartamento con su prometido...

    Director: Chloe Okuno

    Género: HD 1080p

    Actores: Tudor Petruț

  • Observada (2022) PLACEBO Full HD 1080p Latino

    Observada (2022) PLACEBO Full HD 1080p Latino

    2022
    Observada (2022) PLACEBO Full HD 1080p Latino

    1h 35m 2022

    Descargar Observada (2022) PLACEBO Full HD 1080p Latino. Una joven se muda a un nuevo apartamento con...

    Director: Chloe Okuno

    Género: FULL 1080p Plateadas

    Actores: Tudor Petruț

  • Observada (2022) REMUX 1080p Latino

    Observada (2022) REMUX 1080p Latino

    2022
    Observada (2022) REMUX 1080p Latino

    1h 35m 2022

    Descargar Observada (2022) REMUX 1080p Latino. Una joven se muda a un nuevo apartamento con su prometido...

    Director: Chloe Okuno

    Género: Misterio

    Actores: Tudor Petruț

descargar Alarido (2022) REMUX 1080p Latino Full 1080p 1080p gratis, Alarido (2022) REMUX 1080p Latino Full 1080p mega 1 link, Alarido (2022) REMUX 1080p Latino Full 1080p pelicula completa, descargar Alarido (2022) REMUX 1080p Latino Full 1080p gratis en mega.

Alarido (2022) REMUX 1080p Latino pelicula full hd, Alarido (2022) REMUX 1080p Latino mega latino, Alarido (2022) REMUX 1080p Latino 4k latino, Alarido (2022) REMUX 1080p Latino pelicula completa, Alarido (2022) REMUX 1080p Latino descargar gratis, descargar Alarido (2022) REMUX 1080p Latino pelicula latino, Alarido (2022) REMUX 1080p Latino 1 link mega, Alarido (2022) REMUX 1080p Latino 1 link google drive, Alarido (2022) REMUX 1080p Latino hd 1080p latino.
Comentarios 0