×

¿Problemas para descargar con Mozilla, EDGE? Deshabilita la opción "Abrir vinculos en una pestaña nueva" tal como lo muestra ésta imagen.

Aladdín (2019) REMUX 1080p Latino

1.737 vistas

Información de Aladdín (2019) REMUX 1080p Latino

aladdin 56561 poster

Datos de la película

  • Calidad: Full 1080p
  • Audio: Español Latino AC3 5.1 BLURAY - DTS-HD Master 7.1 BLURAY
  • Subtitulos: Español Latino PGS - Ingles PGS
  • Resolución: 1920x1080p
  • Formato: MKV
  • Codec: H.264
  • Encoder: CinefiloCool
  • Mediainfo: Clic para Mostrar Datos Ver
  • Aladdin (2019) REMUX 1080p Latino-CMHDD.mkv
    Format                      : Matroska
    Format version              : Version 4
    File size                   : 27.6 GiB
    Duration                    : 2 h 7 min
    Overall bit rate mode       : Variable
    Overall bit rate            : 30.8 Mb/s
    Movie name                  : Aladdin (2019) CinemaniaHDD.Net
    Encoded date                : UTC 2019-08-31 19:25:41
    Writing application         : mkvmerge v35.0.0 ('All The Love In The World') 64-bit
    Writing library             : libebml v1.3.9 + libmatroska v1.5.2
    Attachments                 : CINEMANIAHD.png

    Video
    ID                          : 1
    Format                      : AVC
    Format/Info                 : Advanced Video Codec
    Format profile              : High@L4.1
    Format settings             : CABAC / 4 Ref Frames
    Format settings, CABAC      : Yes
    Format settings, ReFrames   : 4 frames
    Codec ID                    : V_MPEG4/ISO/AVC
    Duration                    : 2 h 7 min
    Bit rate mode               : Variable
    Bit rate                    : 24.8 Mb/s
    Maximum bit rate            : 31.5 Mb/s
    Width                       : 1 920 pixels
    Height                      : 1 080 pixels
    Display aspect ratio        : 16:9
    Frame rate mode             : Constant
    Frame rate                  : 23.976 (24000/1001) FPS
    Color space                 : YUV
    Chroma subsampling          : 4:2:0
    Bit depth                   : 8 bits
    Scan type                   : Progressive
    Bits/(Pixel*Frame)          : 0.500
    Stream size                 : 22.2 GiB (81%)
    Title                       : Full HD1080p [REMUX]
    Default                     : Yes
    Forced                      : No

    Audio #1
    ID                          : 2
    Format                      : AC-3
    Format/Info                 : Audio Coding 3
    Commercial name             : Dolby Digital
    Codec ID                    : A_AC3
    Duration                    : 2 h 7 min
    Bit rate mode               : Constant
    Bit rate                    : 640 kb/s
    Channel(s)                  : 6 channels
    Channel layout              : L R C LFE Ls Rs
    Sampling rate               : 48.0 kHz
    Frame rate                  : 31.250 FPS (1536 SPF)
    Bit depth                   : 16 bits
    Compression mode            : Lossy
    Stream size                 : 586 MiB (2%)
    Title                       : AC3_5.1_Bluray_Esp
    Language                    : Spanish
    Service kind                : Complete Main
    Default                     : Yes
    Forced                      : Yes

    Audio #2
    ID                          : 3
    Format                      : DTS XLL
    Format/Info                 : Digital Theater Systems
    Commercial name             : DTS-HD Master Audio
    Codec ID                    : A_DTS
    Duration                    : 2 h 7 min
    Bit rate mode               : Variable
    Bit rate                    : 5 316 kb/s
    Channel(s)                  : 8 channels
    Channel layout              : C L R LFE Lb Rb Lss Rss
    Sampling rate               : 48.0 kHz
    Frame rate                  : 93.750 FPS (512 SPF)
    Bit depth                   : 24 bits
    Compression mode            : Lossless
    Stream size                 : 4.75 GiB (17%)
    Title                       : DTS-HD_7.1_Bluray_Eng
    Language                    : English
    Default                     : No
    Forced                      : No

    Text #1
    ID                          : 4
    Format                      : PGS
    Muxing mode                 : zlib
    Codec ID                    : S_HDMV/PGS
    Codec ID/Info               : Picture based subtitle format used on BDs/HD-DVDs
    Duration                    : 1 h 11 min
    Bit rate                    : 41 b/s
    Count of elements           : 4
    Stream size                 : 21.4 KiB (0%)
    Title                       : Sub_Forzados [PGS]
    Language                    : Spanish
    Default                     : Yes
    Forced                      : Yes

    Text #2
    ID                          : 5
    Format                      : PGS
    Muxing mode                 : zlib
    Codec ID                    : S_HDMV/PGS
    Codec ID/Info               : Picture based subtitle format used on BDs/HD-DVDs
    Duration                    : 2 h 0 min
    Bit rate                    : 38.0 kb/s
    Count of elements           : 3570
    Stream size                 : 32.7 MiB (0%)
    Title                       : Sub_Esp [PGS]
    Language                    : Spanish
    Default                     : No
    Forced                      : No

    Text #3
    ID                          : 6
    Format                      : PGS
    Muxing mode                 : zlib
    Codec ID                    : S_HDMV/PGS
    Codec ID/Info               : Picture based subtitle format used on BDs/HD-DVDs
    Duration                    : 2 h 7 min
    Bit rate                    : 47.1 kb/s
    Count of elements           : 4858
    Stream size                 : 42.8 MiB (0%)
    Title                       : Sub_Eng [PGS]
    Language                    : English
    Default                     : No
    Forced                      : No

    Text #4
    ID                          : 7
    Format                      : UTF-8
    Codec ID                    : S_TEXT/UTF8
    Codec ID/Info               : UTF-8 Plain Text
    Duration                    : 2 h 0 min
    Bit rate                    : 62 b/s
    Count of elements           : 1778
    Stream size                 : 54.8 KiB (0%)
    Title                       : Sub_Esp
    Language                    : Spanish
    Default                     : No
    Forced                      : No

    Menu
    00:00:00.000                : en:Chapter 1
    00:04:49.372                : en:Chapter 2
    00:13:04.659                : en:Chapter 3
    00:18:55.760                : en:Chapter 4
    00:26:18.410                : en:Chapter 5
    00:30:26.324                : en:Chapter 6
    00:39:51.889                : en:Chapter 7
    00:54:50.162                : en:Chapter 8
    01:02:18.652                : en:Chapter 9
    01:09:19.489                : en:Chapter 10
    01:21:53.033                : en:Chapter 11
    01:33:51.417                : en:Chapter 12
    01:38:48.381                : en:Chapter 13
    01:45:19.396                : en:Chapter 14
    01:53:07.030                : en:Chapter 15
    01:59:38.463                : en:Chapter 16

  • Peso: 27.6 GiB

Sinopsis

Descargar Aladdín (2019) REMUX 1080p Latino. Aladdin es un adorable pero desafortunado ladronzuelo enamorado de la hija del Sultán, la princesa Jasmine. Para intentar conquistarla, acepta el desafío de Jafar, que consiste en entrar a una cueva en mitad del desierto para dar con una lámpara mágica que le concederá todos sus deseos. Allí es donde Aladdín conocerá al Genio, dando inicio a una aventura como nunca antes había imaginado.

Ficha técnica

Video trailer de la película

Enlaces de descarga

Rip de Bluray

Descargar Aladdín (2019) REMUX 1080p Latino




Aportes de DPeliculasHDmega la pass es:dpeliculashdmega.org Aportes de CinemaniaHD la pass es:cinemaniahdd.com
Guardado en : Aventura , Comedia , Familia , Fantasía , Remux , Romance

Películas relacionadas

descargar Aladdín (2019) REMUX 1080p Latino Full 1080p 1080p gratis, Aladdín (2019) REMUX 1080p Latino Full 1080p mega 1 link, Aladdín (2019) REMUX 1080p Latino Full 1080p pelicula completa, descargar Aladdín (2019) REMUX 1080p Latino Full 1080p gratis en mega.

Aladdín (2019) REMUX 1080p Latino pelicula full hd, Aladdín (2019) REMUX 1080p Latino mega latino, Aladdín (2019) REMUX 1080p Latino 4k latino, Aladdín (2019) REMUX 1080p Latino pelicula completa, Aladdín (2019) REMUX 1080p Latino descargar gratis, descargar Aladdín (2019) REMUX 1080p Latino pelicula latino, Aladdín (2019) REMUX 1080p Latino 1 link mega, Aladdín (2019) REMUX 1080p Latino 1 link google drive, Aladdín (2019) REMUX 1080p Latino hd 1080p latino.
Comentarios 1