Al límite del riesgo (1996) Full 1080p Latino

1.634 vistas
1 estrella2 estrellas3 estrellas4 estrellas5 estrellas (1 votos, promedio: 5,00 de 5)
Cargando…

Información de Al límite del riesgo (1996) Full 1080p Latino

Datos de la película

  • Calidad: Full 1080p
  • Audio: Español Latino AC3 2.0 BLURAY - Ingles AC3 5.1 BLURAY
  • Subtitulos: Español Latino PGS - Ingles PGS
  • Resolución: 1920X1080
  • Formato: MKV
  • Codec: H.264
  • Encoder: Dpelis
  • Mediainfo: Clic para Mostrar Datos Ver
  • Format                                   : Matroska
    Format version                           : Version 4 / Version 2
    File size                                : 4.15 GiB
    Duration                                 : 1 h 40 min
    Overall bit rate                         : 5 910 kb/s
    Movie name                               : dpeliculashdmega.org
    Encoded date                             : UTC 2017-11-26 06:49:28 / UTC 2017-11-25T16:51:30Z
    Writing application                      : mkvmerge v15.0.0 ('Duel with the Devil') 64-bit
    Writing library                          : libebml v1.3.5 + libmatroska v1.4.5 / Lavf57.7.2

    Video
    ID                                       : 1
    Format                                   : AVC
    Format/Info                              : Advanced Video Codec
    Format profile                           : [email protected]
    Format settings                          : CABAC / 4 Ref Frames
    Format settings, CABAC                   : Yes
    Format settings, RefFrames               : 4 frames
    Codec ID                                 : V_MPEG4/ISO/AVC
    Duration                                 : 1 h 40 min
    Bit rate                                 : 4 961 kb/s
    Width                                    : 1 920 pixels
    Height                                   : 1 080 pixels
    Display aspect ratio                     : 16:9
    Frame rate mode                          : Constant
    Frame rate                               : 23.976 (24000/1001) FPS
    Color space                              : YUV
    Chroma subsampling                       : 4:2:0
    Bit depth                                : 8 bits
    Scan type                                : Progressive
    Bits/(Pixel*Frame)                       : 0.100
    Stream size                              : 3.49 GiB (84%)
    Title                                    : Al límite del riesgo (1996) Full 1080p Latino
    Writing library                          : x264 core 148 r2708 86b7198
    Encoding settings                        : cabac=1 / ref=4 / deblock=1:0:0 / analyse=0x3:0x133 / me=esa / subme=10 / psy=1 / psy_rd=1.00:0.00 / mixed_ref=1 / me_range=24 / chroma_me=1 / trellis=2 / 8x8dct=1 / cqm=0 / deadzone=21,11 / fast_pskip=1 / chroma_qp_offset=-2 / threads=34 / lookahead_threads=5 / sliced_threads=0 / nr=0 / decimate=1 / interlaced=0 / bluray_compat=0 / constrained_intra=0 / bframes=8 / b_pyramid=2 / b_adapt=2 / b_bias=0 / direct=3 / weightb=1 / open_gop=0 / weightp=2 / keyint=240 / keyint_min=24 / scenecut=40 / intra_refresh=0 / rc_lookahead=60 / rc=crf / mbtree=1 / crf=20.0 / qcomp=0.60 / qpmin=0 / qpmax=69 / qpstep=4 / vbv_maxrate=62500 / vbv_bufsize=78125 / crf_max=0.0 / nal_hrd=none / filler=0 / ip_ratio=1.40 / aq=1:1.00
    Language                                 : English
    Default                                  : Yes
    Forced                                   : No
    Color range                              : Limited
    Color primaries                          : BT.709
    Transfer characteristics                 : BT.709
    Matrix coefficients                      : BT.709
    Statistics Tags Issue                    : mkvmerge v15.0.0 ('Duel with the Devil') 64-bit 2017-11-26 06:49:28 / mkvmerge v15.0.0 ('Duel with the Devil') 64-bit 2017-11-26 06:49:28 / UTC 2017-11-25T16:51:30Z
    FromStats_BitRate                        : 5062386
    FromStats_Duration                       : 01:40:34.988000000
    FromStats_FrameCount                     : 144695
    FromStats_StreamSize                     : 3818930498

    Audio #1
    ID                                       : 2
    Format                                   : AC-3
    Format/Info                              : Audio Coding 3
    Mode                                     : Dolby Digital
    Format settings, Endianness              : Big
    Codec ID                                 : A_AC3
    Duration                                 : 1 h 40 min
    Bit rate mode                            : Constant
    Bit rate                                 : 192 kb/s
    Channel(s)                               : 2 channels
    Channel positions                        : Front: L R
    Sampling rate                            : 48.0 kHz
    Frame rate                               : 31.250 FPS (1536 SPF)
    Bit depth                                : 16 bits
    Compression mode                         : Lossy
    Stream size                              : 138 MiB (3%)
    Title                                    : Latino-AC3
    Language                                 : Spanish
    Service kind                             : Complete Main
    Default                                  : Yes
    Forced                                   : No
    Statistics Tags Issue                    : mkvmerge v15.0.0 ('Duel with the Devil') 64-bit 2017-11-26 06:49:28 / mkvmerge v15.0.0 ('Duel with the Devil') 64-bit 2017-11-26 06:49:28 / UTC 2017-11-25T16:51:30Z
    FromStats_BitRate                        : 192000
    FromStats_Duration                       : 01:40:35.040000000
    FromStats_FrameCount                     : 188595
    FromStats_StreamSize                     : 144840960

    Audio #2
    ID                                       : 3
    Format                                   : AC-3
    Format/Info                              : Audio Coding 3
    Format settings, Endianness              : Big
    Codec ID                                 : A_AC3
    Duration                                 : 1 h 40 min
    Bit rate mode                            : Constant
    Bit rate                                 : 640 kb/s
    Channel(s)                               : 6 channels
    Channel positions                        : Front: L C R, Side: L R, LFE
    Sampling rate                            : 48.0 kHz
    Frame rate                               : 31.250 FPS (1536 SPF)
    Bit depth                                : 16 bits
    Compression mode                         : Lossy
    Stream size                              : 460 MiB (11%)
    Title                                    : Ingles-AC3
    Language                                 : English
    Service kind                             : Complete Main
    Default                                  : No
    Forced                                   : No
    Statistics Tags Issue                    : mkvmerge v15.0.0 ('Duel with the Devil') 64-bit 2017-11-26 06:49:28 / mkvmerge v15.0.0 ('Duel with the Devil') 64-bit 2017-11-26 06:49:28 / UTC 2017-11-25T16:51:30Z
    FromStats_BitRate                        : 640000
    FromStats_Duration                       : 01:40:35.040000000
    FromStats_FrameCount                     : 188595
    FromStats_StreamSize                     : 482803200

    Text #1
    ID                                       : 4
    Format                                   : PGS
    Muxing mode                              : zlib
    Codec ID                                 : S_HDMV/PGS
    Codec ID/Info                            : Picture based subtitle format used on BDs/HD-DVDs
    Language                                 : Spanish
    Default                                  : No
    Forced                                   : No
    Statistics Tags Issue                    : mkvmerge v15.0.0 ('Duel with the Devil') 64-bit 2017-11-26 06:49:28 / mkvmerge v15.0.0 ('Duel with the Devil') 64-bit 2017-11-26 06:49:28 / UTC 2017-11-25T16:51:30Z
    FromStats_BitRate                        : 17645
    FromStats_Duration                       : 01:34:12.606000000
    FromStats_FrameCount                     : 1526
    FromStats_StreamSize                     : 12467557

    Text #2
    ID                                       : 5
    Format                                   : PGS
    Muxing mode                              : zlib
    Codec ID                                 : S_HDMV/PGS
    Codec ID/Info                            : Picture based subtitle format used on BDs/HD-DVDs
    Language                                 : English
    Default                                  : No
    Forced                                   : No
    Statistics Tags Issue                    : mkvmerge v15.0.0 ('Duel with the Devil') 64-bit 2017-11-26 06:49:28 / mkvmerge v15.0.0 ('Duel with the Devil') 64-bit 2017-11-26 06:49:28 / UTC 2017-11-25T16:51:30Z
    FromStats_BitRate                        : 15667
    FromStats_Duration                       : 01:35:10.372000000
    FromStats_FrameCount                     : 1000
    FromStats_StreamSize                     : 11183639

  • Peso: 4.15 GiB

Sinopsis

Un policía francés descubre que ha tenido un gemelo cuando éste aparece asesinado en Niza. A partir de ahí, decide viajar a los Estados Unidos para descubrir más cosas sobre las actividades de su hermano. Con esta intención, decide suplantarle, viéndose involucrado en una trama que le obligará a enfrentarse al FBI y a las mafias rusas. (FILMAFFINITY)

Ficha técnica

Video trailer de la película

Enlaces de descarga

Rip de Bluray

Descargar Al límite del riesgo (1996) Full 1080p Latino




Aportes de DPeliculasHDmega la pass es:dpeliculashdmega.org Aportes de CinemaniaHD la pass es:cinemaniahdd.com

Películas relacionadas

  • Poseído (2018) WEB-DL 1080p Latino

    2018
    Poseído (2018) WEB-DL 1080p Latino

    0.0 1h 27m 2018

    Mary está embarazada de gemelos, pero, en el parto, uno de los bebés muere. Diagnosticada con depresión...

    Director: Brandon Christensen

    Género: Suspense

    Actores: Sheila McCarthy

  • Painless (2017) WEB-DL 1080p Latino

    2017
    Painless (2017) WEB-DL 1080p Latino

    0.0 1h 21m 2017

    Henry Long busca desesperadamente una cura para la afección que lo deja incapaz de sentir dolor físico.

    Director: Jordan Horowitz

    Género: Drama

    Actores: Valeria Sistrunk

  • Distorted (2018) 1080p Latino

    2018
    Distorted (2018) 1080p Latino

    5.0 1h 30m 2018

    Ricci interpreta a una joven con trastorno bipolar que empieza a sospechar que el propietario de un moderno...

    Director: Rob W. King

    Género: Acción

    Actores: Zan Klein

  • El rey de las drogas (2018) WEB-DL NF 1080p Latino

    2018
    El rey de las drogas (2018) WEB-DL NF 1080p Latino

    0.0 2h 19m 2018

    Lee Doo-sam es un pequeño contrabandista de tiempo en Busan, Corea. Un día, ayuda a la mafia a contrabandear...

    Director: Woo Min-ho

    Género: Acción

    Actores: You Jae-myeong

Comentarios 2
  • Gerrard - 26 noviembre, 2017

    en el post sale que trae latino 5.1 pero el media info dice AC3 2.0

    • Dpelis2 - 26 noviembre, 2017

      Perdón si es 2.0