×

¿Problemas para descargar con Mozilla, EDGE? Deshabilita la opción "Abrir vinculos en una pestaña nueva" tal como lo muestra ésta imagen.

Al Lado de Cristo (2020) WebDL 1080p Latino

222 vistas

Información de Al Lado de Cristo (2020) WebDL 1080p Latino

Datos de la película

  • Calidad: WEBDL
  • Audio: Español Latino AC3 5.1 iTunes - Ingles AC3 5.1 iTunes
  • Subtitulos: Español Latino SRT- FORZADOS SRT
  • Resolución: 1920x816p
  • Formato: MKV
  • Codec: H.264
  • Encoder: CinemaniaHD
  • Mediainfo: Clic para Mostrar Datos Ver
  • Al Lado De Cristo (2020) WebDL 1080p Latino.mkv
    Format                      : Matroska
    Format version              : Version 4
    File size                   : 3.49 GiB
    Duration                    : 1 h 33 min
    Overall bit rate            : 5 343 kb/s
    Movie name                  : The Penitent Thief (2020) CinemaniaHDD.Net
    Encoded date                : UTC 2021-06-03 03:27:19
    Writing application         : mkvmerge v56.1.0 ('My Friend') 64-bit
    Writing library             : libebml v1.4.2 + libmatroska v1.6.4
    Attachments                 : CINEMANIAHD.png

    Video
    ID                          : 1
    Format                      : AVC
    Format/Info                 : Advanced Video Codec
    Format profile              : High@L4
    Format settings             : CABAC / 5 Ref Frames
    Format settings, CABAC      : Yes
    Format settings, Reference  : 5 frames
    Codec ID                    : V_MPEG4/ISO/AVC
    Duration                    : 1 h 33 min
    Bit rate                    : 4 573 kb/s
    Width                       : 1 920 pixels
    Height                      : 816 pixels
    Display aspect ratio        : 2.35:1
    Frame rate mode             : Constant
    Frame rate                  : 23.976 (24000/1001) FPS
    Color space                 : YUV
    Chroma subsampling          : 4:2:0
    Bit depth                   : 8 bits
    Scan type                   : Progressive
    Bits/(Pixel*Frame)          : 0.122
    Stream size                 : 2.98 GiB (86%)
    Title                       : WEB HD1080p [CinemaniaHDD]
    Language                    : English
    Default                     : Yes
    Forced                      : No
    Color range                 : Limited
    Color primaries             : BT.709
    Transfer characteristics    : BT.709
    Matrix coefficients         : BT.709

    Audio #1
    ID                          : 2
    Format                      : AC-3
    Format/Info                 : Audio Coding 3
    Commercial name             : Dolby Digital
    Codec ID                    : A_AC3
    Duration                    : 1 h 33 min
    Bit rate mode               : Constant
    Bit rate                    : 384 kb/s
    Channel(s)                  : 6 channels
    Channel layout              : L R C LFE Ls Rs
    Sampling rate               : 48.0 kHz
    Frame rate                  : 31.250 FPS (1536 SPF)
    Compression mode            : Lossy
    Delay relative to video     : -42 ms
    Stream size                 : 257 MiB (7%)
    Title                       : Español Latino [CinemaniaHDD]
    Language                    : Spanish
    Service kind                : Complete Main
    Default                     : Yes
    Forced                      : No

    Audio #2
    ID                          : 3
    Format                      : AC-3
    Format/Info                 : Audio Coding 3
    Commercial name             : Dolby Digital
    Codec ID                    : A_AC3
    Duration                    : 1 h 33 min
    Bit rate mode               : Constant
    Bit rate                    : 384 kb/s
    Channel(s)                  : 6 channels
    Channel layout              : L R C LFE Ls Rs
    Sampling rate               : 48.0 kHz
    Frame rate                  : 31.250 FPS (1536 SPF)
    Compression mode            : Lossy
    Delay relative to video     : -42 ms
    Stream size                 : 257 MiB (7%)
    Title                       : Ingles [CinemaniaHDD]
    Language                    : English
    Service kind                : Complete Main
    Default                     : No
    Forced                      : No

    Text #1
    ID                          : 4
    Format                      : UTF-8
    Codec ID                    : S_TEXT/UTF8
    Codec ID/Info               : UTF-8 Plain Text
    Duration                    : 1 h 29 min
    Bit rate                    : 0 b/s
    Count of elements           : 11
    Stream size                 : 506 Bytes (0%)
    Title                       : Forzados-SRT [CinemaniaHDD]
    Language                    : Spanish
    Default                     : Yes
    Forced                      : No

    Text #2
    ID                          : 5
    Format                      : UTF-8
    Codec ID                    : S_TEXT/UTF8
    Codec ID/Info               : UTF-8 Plain Text
    Duration                    : 1 h 29 min
    Bit rate                    : 56 b/s
    Count of elements           : 1259
    Stream size                 : 36.8 KiB (0%)
    Title                       : Español-SRT [CinemaniaHDD]
    Language                    : Spanish
    Default                     : No
    Forced                      : No

    Menu
    00:00:00.000                : 1
    00:10:36.886                : 2
    00:23:15.518                : 3
    00:34:41.077                : 4
    00:47:08.865                : 5
    00:58:26.540                : 6
    01:10:17.291                : 7
    01:19:47.776                : 8
    01:29:15.091                : 9

  • Peso: 3.49 GiB

Sinopsis

Descargar Al Lado de Cristo (2020) WebDL 1080p Latino. El ladrón penitente es la historia de los dos hombres sin nombre que fueron crucificados junto a Jesús y cómo llegaron a estar junto a él en la cruz ese fatídico día. El ladrón penitente es una historia épica que comienza con el viaje de los magos y su encuentro casual con el joven Dismas y su hermano Jotham en el pesebre de Belén. Poco después, los jóvenes hermanos sufrirán una tragedia atroz que los llevará a ser acogidos por una banda de ladrones con inclinación por la violencia. Allí, conocen a Gestas, otro joven que compartirá su destino. Juntos, en su viaje a la cruz, intentarán dejar atrás su destino. Pero primero, deben sobrevivir a un despiadado centurión romano que amenaza con desatar una terrible venganza contra ellos. En el camino, con frecuencia se cruzan con Jesús y otras figuras bíblicas influyentes. Pero pronto descubrirán que no hay escapatoria del brutal final que les espera a todos en el Gólgota.

Ficha técnica

  • Titulo original: The Penitent Thief
  • Fecha de lanzamiento: 25-02-2021
  • Director: Lucas Miles
  • Género: Drama

Video trailer de la película

Enlaces de descarga

Rip de Bluray

Descargar Al Lado de Cristo (2020) WebDL 1080p Latino




Aportes de DPeliculasHDmega la pass es:dpeliculashdmega.org Aportes de CinemaniaHD la pass es:cinemaniahdd.com
Guardado en : Drama

Películas relacionadas

descargar Al Lado de Cristo (2020) WebDL 1080p Latino WEBDL 1080p gratis, Al Lado de Cristo (2020) WebDL 1080p Latino WEBDL mega 1 link, Al Lado de Cristo (2020) WebDL 1080p Latino WEBDL pelicula completa, descargar Al Lado de Cristo (2020) WebDL 1080p Latino WEBDL gratis en mega.

Al Lado de Cristo (2020) WebDL 1080p Latino pelicula full hd, Al Lado de Cristo (2020) WebDL 1080p Latino mega latino, Al Lado de Cristo (2020) WebDL 1080p Latino 4k latino, Al Lado de Cristo (2020) WebDL 1080p Latino pelicula completa, Al Lado de Cristo (2020) WebDL 1080p Latino descargar gratis, descargar Al Lado de Cristo (2020) WebDL 1080p Latino pelicula latino, Al Lado de Cristo (2020) WebDL 1080p Latino 1 link mega, Al Lado de Cristo (2020) WebDL 1080p Latino 1 link google drive, Al Lado de Cristo (2020) WebDL 1080p Latino hd 1080p latino.
Comentarios 0